ウサテイ

アーティスト

BPM EASY BASIC ADVANCED EXPERT MASTER
190 2 5 6 10+ 13+

EASY


BASIC

(190.0){1},,
{1}1/8,,
{1}1/8,,
{1}1/8,
{1}1/8,
{2}1/8,1/8,
{2}1/8,1b/8b,
{1}1,
{1}2,
{1}3,
{2}4,4,
{1}5,
{1}6,
{1}7,
{2}8,8b,
{1}1h[1:1],,
{1}8h[1:1],,
{1}2h[1:1],,
{1}7h[1:1],,
{1}1-4[4:3],,
{1}8-5[4:3],,
{1}1-5[4:3],,
{1}8-4[4:3],,
{1}1,
{4}1,1,1,,
{1}3,
{4}3,3,3,,
{1}5,
{4}5,5,5,,
{1}7,
{2}7,7/8,
{2}8,8,
{4}7,7,7,,
{2}6,6,
{4}5,5,5,,
{2}4,4,
{4}3,3,3,,
{2}2,2,
{4}1,1,1b,,
{1}1h[2:1],
{1}8h[2:1],
{2}2,2,
{4}3,3,3b,,
{1}8h[2:1],
{1}1h[2:1],
{2}7,7,
{4}6,6,6b,,
{2}1,1,
{4}8,8,8,,
{4}2,2,1,,
{4}7,7,8b,,
{2}1,2,
{4}8,8,7,,
{4}7,7,8,8,
{4}1,1,2b,,
{2}4,4,
{2}3,3,
{2}2,2,
{4}1,1,1,,
{2}8,8,
{2}7,7,
{2}6,6,
{4}5,5,5,,
{4}7,8,7,,
{4}2,1,2,,
{4}3,3,4,4,
{4}5,5,6,6,
{4}6,5,6,,
{4}3,4,3,,
{4}2,2,1,1,
{4}8,8,7,7,
{1}1b/8b,
E

ADVANCED

(190.0){1},,
{1}7/8,,
{1}1/2,
{4},,2,1,
{1}7/8,
{4},,7,8,
{2}1/2,1/2,
{1}1-4[16:5],
{2}7,5,
{4}3,,7/8,7/8,
{2}2,4,
{4}6,,1/2,1/2,
{2}7,5,
{4}3,,7/8,7/8,
{2}8,7,
{4}7/8,1/8,1b/2b,,
{4},3,,4,
{4},6,,5,
{4},3,,4,
{4},5,6,7,
{4},7,,8,
{4},2,,1,
{4},7,,8,
{4},1,2,3,
{4},3,,5,
{4},6,,4,
{4},3,,5,
{4},6,7,8,
{4},8,,6,
{4},7,,5,
{4},4,,2,
{4},3,2,1,
{2}7h[4:1],8h[4:1],
{4}1,2,3,,
{2}3h[4:1],4h[4:1],
{4}5,6,7,,
{2}7h[4:1],8h[4:1],
{4}1,2,3,,
{2}3h[4:1],4h[4:1],
{4}5,6,7,8,
{4}7,7,8,8,
{4}1,2,3,,
{4}3,3,4,4,
{4}5,6,7,,
{4}7,7,8,8,
{4}1,2,3,,
{2}3/4,5/6,
{4}7/8,7/8,1/2,,
{4}7b,8,7,8,
{4}2,1,2,1,
{4}3,4,5,6,
{1}7^2[16:5],
{4}2,1,2,1,
{4}7,8,7,8,
{4}6,5,4,3,
{1}3^6[16:5],
{4}7/8,7/8,7/8,,
{4}1/2,1/2,1/2,,
{4}3,4,6,5,
{1}4-1[16:5]/5-8[16:5],
{4}1/2,1/2,1/2,,
{4}7/8,7/8,7/8,,
{4}6,5,4,3,
{1}4-1[16:5]/5-8[16:5],
{2}7h[4:1]/8h[4:1],1h[4:1]/2h[4:1],
{4}7,8,2,1,
{4}2,2,1,1,
{1}8^5[16:5],
{2}5h[4:1]/6h[4:1],3h[4:1]/4h[4:1],
{4}2,1,7,8,
{4}7,7,8,8,
{1}1^4[16:5],
{2}3h[4:1]/4h[4:1],5h[4:1]/6h[4:1],
{4}7/8,7/8,1/2,1/2,
{4}3,4,6,5,
{1}5-8[16:5],
{2}7h[4:1]/8h[4:1],1h[4:1]/2h[4:1],
{2}7h[4:1]/8h[4:1],1h[4:1]/2h[4:1],
{4}7/8,7/8,1/2,1/2,
{1}4-1[16:5]/5-8[16:5],
{1}1b/8b,
E

EXPERT

(190.0){1},,
{2}2h[2:1],3h[2:1],
{8}4h[2:1],,,,6,5,6,,
{2}7h[2:1],6h[2:1],
{8}5h[2:1],,,,3,4,3,,
{2}2h[2:1],3h[2:1],
{8}4h[2:1],,,,6,5,6,,
{2}7h[2:1],6h[2:1],
{4}5,4,2b/7b,,
{4}6,5/6,3,3/4,
{4}6,5/7,2h[4:1],1,
{4}3,3/4,6,5/6,
{4}3,2/4,8h[4:1],7,
{4}6,5/6,3,3/4,
{4}7,7/8,1h[4:1],2,
{2}1^4[8:1],5^8[8:1],
{4}1/2,7/8,3/6-3[8:1],,
{4}4,4,5,5,
{4}4,4,5,5,
{4}3,3,6,6,
{8}2,,1,,8,7,8,,
{4}6,6,3,3,
{4}6,6,3h[4:1],4h[4:1],
{4}5,5,4,4,
{8}7,,8,,1,2,1,,
{4}1/2,3,4,5,
{4}7/8,6,5,4,
{4}1/2,3,4,5,
{8}7/8,,1/2,,4,5,4,,
{4}6/8,7,2,5,
{4}1/3,2,7,4,
{4}6/8,7,1/3,2,
{8}3/4,,5/6,,1,8,1,,
{8}2,2,2,,8,8,8,,
{4}2h[4:1],3h[4:1],4h[4:1],5,
{8}7,7,7,,1,1,1,,
{8}7h[4:1],,6h[4:1],,5h[4:1],4,4,,
{8}2,2,2,,8,8,8,,
{4}2h[4:1],3h[4:1],4h[4:1],5,
{8}7,7,7,,1,1,1,,
{8}7h[4:1],,6h[4:1],,5h[4:1],4,4,,
{8}2,1,2,,7,8,7,,
{8}2,2,3,3,4,5,6,,
{8}7,8,7,,2,1,2,,
{8}7,7,6,6,5,4,3,,
{8}1,2,3,,8,7,6,,
{8}4,5,3,6,1,8,2/7,,
{2}3/4,5/6,
{4}3/4,5/6,4/5,2b/7b,
{4}2/8,2/8,1/7,1/7,
{4}2/8,2/8,1/7,1/7,
{4}2/8,1/7,2/8,1/7,
{4}1/2,4/7,3/8,5/6,
{4}1/7,1/7,2/8,2/8,
{4}1/7,1/7,2/8,2/8,
{4}1/7,2/8,1/7,2/8,
{4}7/8,2/5,1/6,3/4,
{4}1/2,3/8,7/8,1/6,
{4}1/2,3/8,7/8,1/6,
{4}1/2,4/8,7/8,1/5,
{4}1/3,6/8,4/7,2/5,
{4}2/1h[4:1],2,7/8h[4:1],7,
{4}2/1h[4:1],2,7/8h[4:1],7,
{4}1/2,7/8,3/4,5/6,
{4}1/2-5[8:1],1,8/7-4[8:1],8,
{4}4/5h[4:3],4,4,4,
{4}4/6h[4:1],4,4/7h[4:1],4,
{8}4/8h[4:1],,4,,4/1h[4:1],,4,1^6[8:5],
{4}4,3,2,1b,
{4}5/4h[4:3],5,5,5,
{4}5/3h[4:1],5,5/2h[4:1],5,
{8}5/1h[4:1],,5,,5/8h[4:1],,5,8^3[8:5],
{4}5,6,7,8b,
{4}2/6,7,8,1,
{4}2/6,3,4/8,7,
{4}1/5,2,3/7,4/6,
{4}6/8,1/3,2/6,4b/8b,
{4}3/7,2,1,8,
{4}3/7,6,1/5,2,
{4}4/8,7,2/6,3/5,
{8}1/3,,6/8,,3/7,,1,8,
{1}2b/7b,
E

MASTER

(190){1},{8}
7,7h[8:3],,,8,8h[8:3],,,
1,1h[8:3],,,2,3-8[8:1],3,,
2,2h[8:3],,,1,1h[8:3],,,
8,8h[8:3],,,7,7-4[8:1],7,,
3,3h[8:3],,,4,4h[8:3],,,
5,5h[8:3],,,6,6-1[8:1],6,,
8,8h[8:3],,,2,2h[8:3],,,
4,,6,5,6-2[8:1],,,,

8,8,7,8,1,1,2,1,
7,7,6,7,5,4,3b,,
1,1,2,1,8,8,7,8,
2,2,3,2,4,5,6b,,
{16}
1,,1,8,2,,2,,3,,4,,5,,6,,
8,,8,1,7,,7,,6,,5,,4b,,,,
7,,7,6,8,,1,,2,,2,3,1,,8,,
{8}7^4[8:1],4^1[8:1],,,,,8b,,

3,2,3,4,3,2,3,4,
3,2,3,4,34,2,34,5,
6,7,6,5,6,7,6,5,
6,7,6,5,56,7,56,8,
7,8,7,6,7,8,7,6,
7,8,7,6,78,6,78,1,
2,3,2,1,2,3,2,1,
2,3,2,1,12,3,12,4,
34,2,34,5,34,2,34,5,
3b/4b,2,34,5,4,4,6,6,
56,7,56,4,56,7,56,4,
5b/6b,7,56,4,6,6,1,1,
78,1,78,6,78,1,78,6,
78,1,78,6,3,3,8,8,
12,8,12,3,12,8,12,3,
12,8,12,3,4,5,6,7,

8-4[4:1],,,,,,6,5,
4,3,,,{16}7,8,7,8,7b,,,,
2,1,2,1,{8}2b,,,45,45,,
,,3^6[4:1],,,,,,
{16}
2,,2,1,3,,3,,7,,7,8,6,,6,,
6,,5,,4,,3,,2h[4:1],,,,3,,,,
8,,8,7,1,,8,,1,,1,2,8,,1,,
3,,4,,5,,6,,7h[4:1],,,,6,,,,
3,,3,4,2,,2,,6,,6,5,7,,7,,
5,,4,,3,,2,,1-5[8:1],,,,,,,,
6,,6,5,7,,6,,3,,3,4,2,,3,,
4,,5,,6,,7,,8-4[8:1],,,,,,,,
3,,3,4,2,,2,,7,,7,8,6,,6,,
8,,1,,2,,3,,4h[4:1],,,,3,,,,
{4}5-1[8:1],,4-8[8:1],,
6-1[8:1],3-8[8:1],2-5[8:1],7b,

{16}
7^4[4:1],,,,4^1[4:1],,,,1,,8,,7,,6,,
5,,4,,3,,3,4,3,,2,,12,,,,
2^5[4:1],,,,5^8[4:1],,,,8,,1,,2,,3,,
4,,5,,6,,6,5,6h[4:1],,,,7,,,,
1^6[4:1],,,,6^3[4:1],,,,3,,2,,1,,8,,
7,,6,,5,,3,4,3,,2,,12,,,,
8^3[4:1],,,,3^6[4:1],,,,6,,7,,8,,1,,
2,,3,,4,,6,5,6h[4:1],,,,7b,,,,

2-5[8:1],,,,6,,,,5,,7,6,7,,7,,
8,,1,,2,,2,3,2-6[8:1],,,,7b,,,,
7-4[8:1],,,,3,,,,4,,2,3,2,,2,,
1,,8,,7,,7,6,7-3[8:1],,,,8b,,,,
6-1[8:1],,,,7,,,,8,,7,6,7,,5,,
4,,3,,2,,2,3,2-5[8:1],,,,3b,,,,
3-8[8:1],,,,2,,,,1,,2,3,2,,4,,
5,,6,,7,,7,6,7-4[8:1],,,,2b,,,,

{16}8,,1,7,8,,6,,7,,8,,{4}1-5[8:1],
8-4[8:1],1-6[8:1],8-3[8:1],,
{16}4,,5,3,4,,2,,3,,4,,{4}5-1[8:1],
4-8[8:1],5-2[8:1],4-7[8:1],,
{16}7,,6,8,7,,1,,8,,7,,{4}6-2[8:1],
7-3[8:1],6-1[8:1],7-4[8:1],,
{16}2,,3,1,2,,8,,1,,2,,{4}3-7[8:1],
2-6[8:1],3-8[8:1],2-5[8:1],,

{16}6,,6,5,7,,7,,8,,8,7,{8}1-5[8:1],1,
8-4[8:1],8,1-6[8:1],1,8-3[8:1],8,,,
{16}2,,2,4,3,,3,,4,,4,6,{8}5-1[8:1],5,
4-8[8:1],4,5-2[8:1],5,4-7[8:1],4,,,
{16}1,,1,7,8,,8,,7,,7,5,{8}6-2[8:1],6,
7-3[8:1],7,6-1[8:1],6,7-4[8:1],7,,,
{16}8,,8,2,1,,1,,2,,2,4,{8}3-7[8:1],3,
2-6[8:1],2,3-8[8:1],3,2-5[8:1],2,5^8[4:1],,
{1}8^3[4:1],
,,
E

名前:
コメント:

タグ:

+ タグ編集
  • タグ:

このサイトはreCAPTCHAによって保護されており、Googleの プライバシーポリシー利用規約 が適用されます。

最終更新:2022年07月17日 13:42