True Love Song

BPM EASY BASIC ADVANCED EXPERT MASTER
150 1 4 6 9 11+

EASY


BASIC


ADVANCED


EXPERT

(150){2}
3h[4:3]/6h[4:3],,
7h[4:3]/2h[4:1],{16}3,,,3,,,2,,
{2}1h[4:3]/8h[2:1],{8},,5,5h[8:11],
4h[4:1],,,,{16}4,,,4,,,3,,
{2}2h[4:5],{16}5,,,5,,,6,,
{2}7h[4:3],4h[4:3],
3h[4:3],2h[1:1],
{4}1,1,1,1b/8-4[1:1],

{1}
,
2h[4:7],
6h[4:7],
4h[4:3],
{4}
3,2,1-5[4:1],,
6,7,8-4[4:1],,
3h[4:3],,2h[4:3],,
1h[4:3],,8h[4:1],,
{1}
2h[4:7]/6h[4:7],
,
{4}
7h[4:3],6^3[2:1],,,
2h[4:3],3^6[2:1],,,
4h[1:2],,,2,
,,,2,
3h[4:3],,4h[4:3],,
5h[4:3],,6h[4:3],,
7h[4:7],,,1,
,,,1,
2h[4:3],,1,8,
7h[4:3],,8,1,
5,4,3h[4:1],2,
4,5,6h[4:1],7,
8h[2:1],,1h[2:1],,
{12}7,6,5,4,3,2,{4}1b,8h[4:17],
3,3,3,3,
3,3,3,3,
3,3,3,3,
3,3,3,3,
3h[1:1],5,5,5,
5h[1:1],7,7,7,
7h[1:1],1,1,1,
1h[4:3],3,3,3,
3h[4:7],2,1,8,
7,6,5,4,
6h[1:1],7,8,1,
2h[1:1],3,4,5,
6h[4:7],7,8,1,
2,3,4,5,
3h[1:1],2,1,8,
7h[1:1],6,5,4,
3,3h[2:1],7,7h[2:1],
1,1h[2:1],5,5h[2:1],
2,2h[2:1],6,6h[2:1],
8,8h[2:1],4,4-7[8:1],
,8-3[8:1],,4^1[2:1]/8^5[2:1],
,,,37,
{1}3h[1:2]/7h[1:2],
,
,
,,
E

MASTER

(150){8}
13,,7,7,,6,6,,
13,,5,5,{16}4,,,3,,,{8}2,
13,,6,6,,5,2,2,
,,7,7,{16}1,,,2,,,{8}3,
14,,8,8,{16}4,,,3,,,{8}2,
14,,45,,36,,27,,
3h[2:1]/6h[2:1],,,,,,1,8,
,6,3,5,4,,2b/7b,,

{2}
1-4[2:1],8-5[2:1],
1^4[2:1],8^5[2:1],
4^1[2:1],5^8[2:1],
4-8[2:1],5-1[2:1],
,{16}17,,,,68,,,,
2,,,3,,,{8}4,,6,5,,
2h[2:3],,,,,,8,,
{2}6h[2:1],,
1^4[2:1],8^5[2:1],
3-7[2:1],6-2[2:1],
{4},4,3,8,
{16}56,,,47,,,{8}8h[16:5],,,3,2,
{2}5^8[2:1],4^1[2:1],
6-2[2:1],3-8[2:1],
{4},5,6,1,
{16}43,,,52,,,{8}1h[16:5],,,6,7,
{2}5^2[2:1],1^6[2:1],
,{4}38,16,
45,,{16}28,,1,,3,,,,
8,,,7,,,{8}5h[16:5],,,3,,
24,,35,,17,8,6,,
{16}1,,,2,,,{8}4h[16:5],,,6,57,
{1}4^7[2:1]/8b,
{12}2,3,4,5,6,7,{4}26,7b/3,

12,56,78,34,
17,35,28,46,
{16}8,,,3,2,,,,1,,,7,6,,,,
38,,,1,2,,,,16,,,7,8,,,,
36,,,4,5,,,,18,,,,27,,,,
1,,,3,,,5,,,,7,,{4}78,
2h[2:1],,4,7,
5h[2:1],,,36,
{16}1,,3h[8:3],,,,,,,,,1,2,,4,,
8,,6h[8:3],,,,,,,,,8,7,,5,,
,,,,18,,,,45,,,,36,,,,
4,,,6,,,8,,,,2,,12,,,,
5,,7h[8:3],,,,,,,,,5,6,,8,,
4,,2h[8:3],,,,,,,,,4,3,,1,,
,,,,27,,,,68,,,,13,,,,
6,,,5,,,7,,,,24,,14,,,,
2,1,,3,4,,,,8,7,,5,6,,,,
3,4,,5,6,,,,13,,,35,,,57,,
8,,7,,56,,,,1,,2,,43,,,,
6,,,2,,,8,,,,12,,13,,,,
56,,,,47,,,,3,,1,,2,,,,
17,,,8,,,5,,,,1,,2,,,,
{1}1b/6b,
,
,
,,
E

名前:
コメント:

タグ:

+ タグ編集
  • タグ:

このサイトはreCAPTCHAによって保護されており、Googleの プライバシーポリシー利用規約 が適用されます。

最終更新:2021年05月11日 21:13