Urban Crusher [Remix]

BPM EASY BASIC ADVANCED EXPERT MASTER
155 2 5 8 11 11

EASY


BASIC


ADVANCED


EXPERT

(155){16}
,,,,,,,,1,,1,,7,8,1,2,
3,,,,5,,,,7,,7,,,,56,,
,45,,,34,,,,,,3,4,5,6,,,
6,,,,4,,,,2,,2,,3,,34,,
,,7,,6,,56,,,,,,2,1,8,7,
6,,,,8,,8,,1,,,1,,,12,,
,12,,,78,,,78,,,18,,,12,,,
{12}3,4,5,6,5,4,3,4,5,6,,,
{16}7,7,,,2,2,,,8,1,8,1,8,,,,

{8}
3h[8:5],,6,6,6h[2:1],,3,3h[2:1],
,6,6h[8:5],,3,3,3h[4:1],,
5h[4:1],4,4h[8:3],5,5h[2:1],,4,4h[8:3],
,5,5h[4:1],4,4,,45,,
7,2h[4:1],7h[2:1],,2,2h[2:1],,7,
7h[8:7],,2,2h[8:1],,2,2h[2:1],,
8,8,8h[2:1],1,1,1h[8:1],,,
{16}5,,,3,,,6,,,2,,,7,7,1,1,

{8}
8-3[4:1],,,,7-4[4:1],,,6-3[4:1],
,,,7-2[4:1],,,,,
1-6[4:1],,,,2-5[4:1],,,3,
{16}8b,8b,,,6,,1b,1b,{8},,3,,
18,,7,67,6,,5,34,
,4,56,,4,34,3,,
18,,2,23,3,,4,5,
{16}3,4,3,4,,,6,5,6,5,{8},3,,
6,,5,35,4,46,,34,
4,35,,56,5,4,34,,
3,,4,46,5,35,,1,
{16},12,,,,,8,,,78,,,{8},,
2,,17,8,1,28,,8,
17,8,,1,28,7,18,,
7,28,1,8,17,8,1,8/2^7[8:3],
{1},

{16}
6,,,,,,6,5,4,,,,,,3,2,
1,,,,,,8,7,6,,,,,,5,4,
3,,,,,,2,1,8,,,,,,7,6,
5,,,,,,4,3,2,,,,,,1,8,
1,,,,,,8,1,2,,,,,,3,4,
5,,,,,,6,7,8,,,,,,1,2,
3,,,,,,4,5,6,,,,,,7,8,
{1}1-5[4:1],

{8}
2h[2:1],,7,5,3h[8:3],8,6,4h[2:1],
,1,7,5h[2:1],,2,8,6h[8:3],
3,1,7h[2:1],,4,2,8h[2:1],5,
,3,1h[2:1],6,,4,2,,
7h[2:1],,2,4,6h[8:5],,1,3,
,5h[2:1],8,,2,4h[8:5],7,,
1,,3h[8:5],6,,,8,2h[8:7],
,,5,7h[8:3],,,,,

{16}
8,,,,8,,8,1,2,,2,,,,1,,
,,,,1,,1,8,7,,7,,,,,,
3,,,,3,,3,4,5,,5,,5,,1b/3b,,
,,4,,4,,6b/8b,,,,,,2,,,,
7,,,,5,5,6,6,5,6,5,,,,2,,
,,,,4,4,3,3,4,3,4,,,,,,
{12}7,6,5,2,3,4,8,7,6,1,2,3,
{8}1-6[8:1],,,8-3[8:1],,,,,

2,1,7,8,2,1,2,3,
7,8,2,1,7,8,7,6,
2,1,7,8,2,1,2,3,
{16}7,,7,2,,2,7,,1,,2,,8,7b,,,
2,,1,,7,,8,,2,,1,,2,3b,,,
7,,8,,2,,1,,7,,8,,7,6b,,,
2,,1,7,,8,3b,,1,,2,8,,7,6b,,
{1}5,

{16}
5,,5,,4,,6,5,4,3,5,,4,,,,
{1},
E

MASTER

(155){16}
,,,,,,,,2,,2,,3,4,5,6,
7,,,,7,,,6,6,,1,,,,2,,
,,,,,,,,,,3,,4,4,,,
7,,,,6,,,7,7,,1,,,,2,,
,,,,,,2b,,,,7,,6,5,4,3,
2,,,,2,,,3,3,,8,,,,7,,
,,,,,,,,,,6,,5,5,,,
2,,,,3,,,2,2,,1,,,,8,,
7,7,,,1,1,,,8,,1,2,3,4,5,6,

{8}
7h[4:1],8,1h[4:1],2,3h[4:1],4,5h[4:1],6,
7-2[8:1],8,,3,4-1[8:1],5-8[8:1],,,
2h[4:1],3,4h[4:1],5,6h[4:1],7,8h[4:1],1,
2-5[8:1],3,,6,7,8,18,,
7h[4:1],8,1h[4:1],2,3h[4:1],4,5h[4:1],6,
7-2[8:1],8,,3,4-1[8:1],5-8[8:1],,,
2h[4:1],3,4h[4:1],5,6h[4:1],7,8h[4:1],1,
{16}2,,3,4,3,,8,,7,6,7,,6,5,4,3,

{8}
2h[2:1],,6,5h[2:1],,4,2,1h[4:1],
,8,8^3[8:1],,4^7[8:1],,,,
7h[2:1],,3,4h[2:1],,5,7,8,
{16}1,1,,,8,,7,7,{8},,,,
2h[2:1],,6,5h[2:1],,4,2,1h[4:1],
,8,8^3[8:1],,4^7[8:1],,,,
7h[2:1],,3,4h[2:1],,5,7,8,
{16}1,2,1,2,8,,8,7,8,7,1,,2,2,,,

8,,6,,4,,3,4,,,5,,7,,1,,
,,8,,7,,6,7,,,8,,,,8,,
1,,3,,5,,6,5,,,4,,2,,1,2,
,,1b,,1,,8,7,,,8b,,,,,,
8,,6,,4,,3,4,,,5,,7,,1,,
,,8,,7,,6,7,,,8,,,,8,,
1,,3,,5,,6,5,,,4,,2,,1,2,
{1},

{8}
1,1,2,2,3,3,4,4,
5,5,6,6,7,7,8,8,
1,1,8,8,7,7,6,6,
5,5,4,4,3,3,2,2,
12,78,56,,78,,18,,
23,45,67,,78,,67,,
15,26,37,48,37,26,{16}5,4,3,2,
1,1,2,2,3,3,4,4,5,5,6,6,7,7,8,8,

{8}
1h[8:3],,3,7h[2:1],,6,4,2h[2:1],
,8,6,5h[8:5],,4,3,2,
1h[8:3],,2,4h[2:1],,5,7,8-4[8:1],
,2-6[8:1],,7-3[8:1],,,,,
1h[8:3],,3,7h[2:1],,6,4,2h[2:1],
,8,6,5h[8:5],,4,3,2,
13,,68,17,,7,68,1b/7b,
,,13,2b/8b,,,,,
1h[8:3],,3,7h[2:1],,6,4,2h[2:1],
,8,6,5h[8:5],,4,3,2,
1h[8:3],,2,4h[2:1],,5,7,8-4[8:1],
,2-6[8:1],,7-3[8:1],,,,,
1h[8:3],,3,7h[2:1],,6,4,2h[2:1],
,8,6,5h[8:5],,4,3,2,
{16}
1,,,1,2,,3,,,3,4,,5,,,5,
6,,7,,,7,8,,8,,,,1b,,1b,,
{8}
2-5[8:1],2,,3,4-7[8:1],4,,5,
6-1[8:1],6,,8,2-5[8:1],2,,3,
4-7[8:1],4,,5,6-1[8:1],6,,8,
2-5[8:1],2,,3,4-7[8:1],4,,,

{16}
8,,1,,2,,,6,6,5,5,,3,3,,,
1,,8,,7,,,3,3,4,4,,6,6,,,
8,,1,,2,,,6,6,5,5,,3,3,,,
{1}1,

{16}
4,,5,,6,,1,5,3,7,1,,27,,,,
{1},
E

名前:
コメント:

タグ:

+ タグ編集
  • タグ:

このサイトはreCAPTCHAによって保護されており、Googleの プライバシーポリシー利用規約 が適用されます。

最終更新:2014年03月13日 23:27