Beat Of Mind

BPM EASY BASIC ADVANCED EXPERT MASTER Re:MASTER
140 2 5 8 9 9 14

EASY


BASIC


ADVANCED


EXPERT


MASTER

(140){8}
6,,6,,6,,6,,
2,,1,2,,8,67,,

2,2,7h[4:1],,6,,1,1,
8h[4:1],7,6,,1h[8:1]/5h[8:1],,4h[8:1]/8h[8:1],,
7,7,2h[4:1],,3,,8,8,
1h[4:1],2,3,2b/7b,,,18,36,
2,2,6h[4:1],,3h[4:1],,5h[4:1],4,
4h[4:1],,7h[2:1],6h[8:3],,,,,
7,7,2h[4:1],,3h[4:1],,2,1,
{16}18,,,67,,,{8}45,67,,28,13,
27,,3h[4:1],,6h[4:1],,4h[4:1],5,
5h[4:1],,2h[2:1],3h[8:3],,,,,
2,2,6h[4:1],,2h[4:1],,8h[4:1],3,
4h[4:1],,5,,18,36,3b/6b,,

7h[4:1],,2^7[4:1],3h[2:1],,,,7h[8:1],
,1,1,1,8-4[4:1],,,,
2h[4:1],,7,6h[2:1],,,,2h[8:1],
,38,,,,16,,,
2h[4:1],,7^2[4:1],6h[2:1],,,,2h[8:1],
,8,8,8,1-5[4:1],,,,
7h[4:1],,2,3h[2:1],,6h[4:1],,,
7,1h[8:1]/6h[8:1],,,,3h[8:1]/8h[8:1],,,

3-8[4:1],,,,1,1,,2,
2,,1,1,{16}18,,,78,,,{8}1b/8b,
6-1[4:1],,,,8,8,,7,
7,,1,,2b/7b,2b/7b,,,
4-8[4:1],,,,1,1,,2,
2,,1,1,{16}18,,7,6,,2,{8}3,
5-1[4:1],,,,8,8,,7,
7,,8,,18,27,36,27,

2h[4:1],,1,,7h[4:1],6,5,4h[4:1],
5,6,,,3-7[4:1],,,,
2h[4:1],,3,,7h[4:1],6,5,4h[4:1],
5,6,,,6-2[4:1],,,,
7h[4:1],,8,,3h[4:1],2,1,8h[4:1],
1,2,3h[4:1],,2-7[4:1],,,,
2h[4:1],,1,,6h[4:1],5,4,3h[4:1],
4,5,6h[4:1],,7-2[4:1],,,,

8,,3,23,,18,8,6,
67,,2,23,,18,7,7,
67,,8,6,,1,2,3,
2h[4:3],,1,,,,1b,,
27,,8,16,7,27,1,1,
28,7,78,68,1,27,8,12,
13,1,27,,6,,6,,
18,,,,26,,4b/8b,,

2h[8:1],7h[8:1],1h[8:1],8h[8:1],3h[8:1],6h[8:1],4h[8:1],5,
{16}36,,,27,,,{8}18,1,,36,36,
3h[8:1],5h[8:1],4h[8:1],6h[8:1],2h[8:1],1h[8:1],8h[8:1],1,
{16}18,,,23,,,{8}45,6h[8:3],,5,5,
3h[8:1],4h[8:1],3,12,1b/8b,7h[8:1],4h[8:1],5h[8:1],
2h[8:1],8h[8:1],3h[8:1],6h[8:1],1h[8:1],8h[8:1],7h[8:1],6h[8:1],
7,,3h[8:1],8h[8:1],5h[8:1],2h[8:1],7h[8:1],2,
1h[4:1]/8h[4:1],,,,27,3h[8:1]/6h[8:1],,
{1},,,
E

Re:MASTER

(140)
{16}5/4h[4:1],,5,5,5h[4:1],,4,4,4h[4:1],,5,5,6-3[8:1],,5,,
{8}6/2-7[8:1],1,2/6-3[8:1],5,1w5[8:1]/6,8,1,,
6-1[8:1],4,6/3h[16:1],3h[16:1],1-6[8:1],3,1/4h[16:1],4h[16:1],
6,5,3/4-8[8:1],2/5,3-1[8:1]/4-7[8:1],,3/4,,
3-8[8:1],5,3/6h[16:1],6h[16:1],8-3[16:1],6,8/5p4[4:1],4,5,,
1-5[8:1],8,18,8,3h[16:1]/7h[16:1],1h[16:1]/5h[16:1],
3-8[8:1]/7,6,35,4,7-4[8:1]/3,2,7/1p8[4:1],8,1,,,36,
{48}36,5,4,3,,,,,,,,,
{8}1-5[8:1]/8-4[8:1],4^1[8:1]/5^8[8:1],,,,2/7h[8:1],5h[8:1],4h[8:1],2,18,
{48}14,2,3,4,,,,,,14,2,3,4,,,,,,14,2,3,4,,,
{8}2-6[8:1]/8,7-3[8:1]/1,8-4[8:1]/2,7,8,,
3-8[8:1]/5,4-7[8:1]/2,35,4,,
{16}2^7[8:1]/7,,45,,26,6,,,6^3[8:1]/3,,18,,26,2,,,
18,,6-1[8:1]/4,,5-2[8:1]/7,,46,,5,,
8,8pp2[16:1]*qq6[16:1],,8,8,,,,27,,27,,,,,,24,,28,,6-3[8:1]/4,,,,

3,,2-7[8:1],1,1,,26,,5,,6-3[8:1],7,7,,6,,,,
1,1,2-7[8:1]/5h[16:1],,5h[16:1],,2,,6,,3-6[8:1]/6,2,2,,3,,7-2[8:1],8,8,,7,,
4h[16:1],,4h[16:1]/5h[16:1],,5,,3-6[8:1],4,4,,8b/3,,,,7-2[8:1],8,8,,3b/7,,3b-6[8:1],4,4,,
3,,7-2[8:1],8,8,,7/4h[16:1],,5h[16:1],,3-6[8:1],4,4,,3,,8h[16:1],,1h[16:1],,7-2[8:1],8,8,,
7,,3,,6-3[8:1],5,5,,4h[16:6]/6,,,,2,,2h[4:1],,1b,,1b,,,,
4h[16:1],,4h[16:1]/5h[16:1],,27,,,,4-8[8:1]/5-1[8:1],36,,,45,,,,,,

5-1[8:1]/3,,3,4,5,,4-8[8:1],,2,3,4,,3-7[8:1],,1,2,3,,2,,8,1,2,,
{48}85,7,6,5,,,,,,85,7,6,5,,,,,,85,7,6,5,,,
{16}4-8[8:1],,6,5,4,,5-1[8:1],,7,6,5,,6-2[8:1],,8,7,6,,7,,1,8,7,,5h[16:1],,4h[16:1]/5h[16:1],,,,8,,
4-8[8:1]/6,,6,5,4,,5-1[8:1],,7,6,5,,6-2[8:1],,8,7,6,,7,,1,8,7,,
{48}14,2,3,4,,,,,,14,2,3,4,,,,,,14,2,3,4,,,
{16}5-1[8:1],,3,4,5,,4-8[8:1],,2,3,4,,3-7[8:1],,1,2,3,,2,,8,1,2,,8v6[8:1]/1v3[8:1],,45,,18,,,,

2-7[8:1]/7-2[8:1],,1,8,27,,,,2-5[8:1]/5,,3,4,25,,7,,7-4[8:1]/4,,6,5,47,,,,3-6[8:1]/6-3[8:1],5,4,5,36,,,,
2-7[8:1]/7-2[8:1],,8,1,27,,,,7-4[8:1]/4,,6,5,47,,2,,35,,3,4,5-1[8:1]*v8[8:1]/2,4,3,,5,,,,6h[16:1]/3[16:1],3h[16:1],6h[16:1],3,
2-7[8:1]/7-2[8:1],,1,8,27,,,,2-5[8:1]/5,,3,4,25,,7,,7-4[8:1]/4,,6,5,47,,,,3-6[8:1]/6-3[8:1],5,4,5,36,,,,
2-7[8:1]/7-2[8:1],,8,1,27,,,,7-4[8:1]/4,,6,5,7pp2[2:1]/4,,2,,{8}27,4,4,5,5,4,2b/7b,1,

2-4[8:1]/7,5,2-6[8:1]/7,8,2-4[8:1]/7,5,2-6[8:1]/7,8,2-4[8:1]/7,5,2-6[8:1]/7,8,27,5,7,18,
7-5[8:1]/2,4,7-3[8:1]/2,1,7-5[8:1]/2,4,27,
{16}1,1,8,8,,3,5,6,4,3,2-6[8:1]/7,,18,,2b/6b,,,,
{8}1-5[8:1],8,7-4[8:1]/1,8,1-5[8:1]/7,8,1,7,5-1[8:1],4,3-8[8:1]/5,4,5-1[8:1]/3,4,5,,
{16}3-8[8:1]/6-1[8:1],,4,5,36,,,,{8}4,35,2v7[8:1]/6v3[8:1],,26,,4v1[8:1]/8v5[8:1],,4-2[8:1]/8-6[8:1],,48,,

2v5[8:1]/6,5^2[8:1]/1,2,8,8-4[8:1],18,1,1,
{48}3/7h[16:1],4,5,6,,,,,,6/2h[16:1],5,4,3,,,,,,3/7h[16:1],4,5,6,,,
{16}7,7,2,,{8}2v5[8:1]/7v4[8:1],4<8[8:1]/5>1[8:1],,,,
27,1-5[8:1]/6,38,61,8,
{48}6/2h[16:1],5,4,3,,,,,,3/7h[16:1],4,5,6,,,,,,6/2h[16:1],5,4,3,,,
{16}2,2,7,,{8}3v8[8:1]/6v1[8:1],1<5[8:1]/8>4[8:1],,,,
7-4[8:1]/3,2-5[8:1]/6,7,2qq7[4:1],8,2,,,
{16}4-2[8:1]/5,6,5-7[8:1],3,4-8[8:1]/6,,5,,4,,{8},
2v5[8:1]/6v1[8:1],1^6[8:1]/5^2[8:1],,,,45,18,27,2b/7b,,,18,18,45,,
{1}2-6[2:1],{16}2,2,3,3,14,,7w3[8:1],7,6,{1}6,,,,E

名前:
コメント:

タグ:

+ タグ編集
  • タグ:

このサイトはreCAPTCHAによって保護されており、Googleの プライバシーポリシー利用規約 が適用されます。

最終更新:2021年02月28日 14:59