In Chaos

BPM EASY BASIC ADVANCED EXPERT MASTER Re:MASTER
140 2 5 6 8 10+ 13


EASY


BASIC


ADVANCED


EXPERT


MASTER

(140){1},{4}
,3,,3,
,3,,3,
,3,,2-7[4:3]/3h[1:1],
,,,,

{16}
6,6,,,7,,6,6,,,5,,6,6,,,
7,,6,6,,,5,,,,6,,67,,,,
3,3,,,2,,3,3,,,4,,3,3,,,
2,,3,3,,,4,,,,2,,18,,,,
6,6,,,7,,6,6,,,5,,6,6,,,
7,,6,6,,,5,,,,6,,67,,,,
3,3,,,2,,3,3,,,4,,3,3,,,
2,,3,,4,,6,,5,,4,,8,,,,

6,,8,,7,,8,,5h[8:3],,,2,,2,,,
3,,1,,2,,1,,4h[8:3],,,7,,7,,,
1,,7,,8,,7,,3h[8:3],,,1,,8,,,
{8}
7,7,7,7,,1,2,3,
4,,48,5,6,37,,6,
6,,15,4,3,26,,3,
3,,48,5,6,37,,2,
{16}
8,,,8,1,,,1,,,18,,45,,,,

{4}
2h[4:1],1h[4:1],8h[4:1],7h[4:1],
6h[4:1],5h[4:1],4h[4:1],3h[4:1],
2h[4:1],1h[4:1],8h[4:1],7h[4:1],
{16}5,,,3,,,{8}1,7,8b,,,

1-4[4:1],,,8-5[4:1],,,,,
2-5[4:1],,,1-6[4:1],,,,,
7-4[4:1],,,8-3[4:1],,,,,
1-4[4:1],,,2-7[4:1],,,,,
8-5[4:1],,,1-4[4:1],,,,,
6-3[4:1],,,7-2[4:1],,,,,
8-3[4:1],,,7-4[4:1],,,,,
2-5[4:1],,,7-4[4:1],,,,,

{16}
,,,,2,,1,2,,2,6,,78,,27,,
,,,,8,,7,8,,8,4,,23,,12,,
18,,,,5,,6,5,,5,1,,23,,34,,
78,,16,,48,,12,,38,,15,,27,,1b/8b,,
,,7,8,7,,2,,5,,8,,12,,23,,
,,2,1,2,,7,,4,,1,,78,,67,,
,,3,4,3,,7,,5,6,5,,34,,27,,
5h[8:5],,,,,,1h[4:1],,,,,,3b/7b,,,,

,,,,15,,,,2,3,2,,4,3,,,
,,,,48,,,,7,6,7,,5,6,,,
,,,,27,,,,3,4,3,,6,5,,,
1h[1:1],,7,,,6,,,5,,,4,,,3,,
,,,,38,,,,6,4,6,5,,3,4,,
,,,,16,,,,3,5,3,4,,6,5,,
,,,,48,,,,3,5,3,4,,7,6,,
15,,,48,,,15,,37,,,,,,,,

,,,,1h[8:3],,3,,5,,7h[8:3],,5,,3,,
,,,,8h[8:3],,6,,4,,2h[8:3],,4,,6,,
,,,,7h[8:3],,5,,3,,1h[8:3],,3,,5,,
7,,,,1,2,1,,8,,7,6,,7b,,,
8,,12,,3,4,3,,2,,1,8h[16:5],,7,,,
1,,78,,6,5,6,,7,,8,1h[16:5],,2,,,
8,,12,,3,4,3,,2,,1,8h[16:5],,7,,,
,,7,8,1,,2,,3,4,3,,2b,,,,
{1},,,
E

Re:MASTER


(140)
{8}1,,2,,,8b,8b,,
2,,,2,,,2,,,2,,7,,7,2,,
2,,,2,,,2,,,,,{16},8,1,8,1,8,
{32}1,2,3,4,8,7,6,5,

{16}2-5[8:1],2,13,,2,,7,7,8,8,1-4[8:1]/7,,78,,18,,
6-1[8:1],6,45,,4,,2,2,8,8,17,,8,8,3,3,
7-4[8:1],7,86,,7,,2,2,1,1,8-5[8:1]/2,,21,,81,,
3-8[8:1],3,54,,5,,7,7,1>5[8:1],1,82,,{32}5,6,7,8,{8}1,
{16}7-4[8:1],7,86,,7,,2,2,1,1,8-5[8:1]/2,,21,,81,,
3-8[8:1],3,54,,5,,7,7,1,1,82,,1,1,6,6,
2-5[8:1],2,13,,2,,7,7,8,8,1-4[8:1]/7,,78,,18,,
7,7,8,8,17,,2,2,1>5[8:1],1,28,,{32}5,6,7,8,{8}1,

{16}8,,35,,1,,46,,8-3[16:1],3-8[16:1],12,,8,,,,
1,,46,,8,,35,,1-6[16:1],6-1[16:1],78,,1,,,,
,,1,2,7,6,2,3,6-3[16:1],3-6[16:1],45,,6,,,,
1>5[8:1]/2>6[8:1],,5<1[8:1]/6<2[8:1],,12,,,,,,
{32}1,8,1,8,{24}2,3,4,7,6,5,

{8}8,35,8,3v8[8:1]/5v8[8:1],8,35,7,35,
1,46,1,4v1[8:1]/6v1[8:1],1,46,2,46,
5,28,5,2v5[8:1]/8v5[8:1],5,28,6,28,
{16}1-4[8:1]/7,,8,8,1/7-4[8:1],,8,8,17,,1b,,
{32}1b/5b,26,37,48,{8}15,

{4}5<1[8:1],5>1[8:1],5w1[8:1],5,
3V17[8:1],3V57[8:1],3w7[8:1],3,
7<3[8:1]*V53[8:1],7>3[8:1]*V13[8:1],7w3[8:1],7,
{16}15,,,26,,,37,,48,,{32}48,37,26,15,{8}48,,

{16}2,2,1,1,28,,1<7[8:1],8,1>3[8:1],,1-5[8:1],,1,,1,,
3,3,4,4,35,,6<8[8:1],6,3>8[8:1],,6v1[8:1],,3,,6,,
4,4,5,5,36,,
8-4[8:1],8,4qq2[8:1]*pp6[8:1],,8,,,,,,
8,1,8,1,78,,{32}1,2,3,4,
5,6,7,8,1,2,3,4,5,6,7,8,1,2,3,4,

{16}7,7,8,8,71,,8>2[8:1],1,8<6[8:1],,8-4[8:1],,8,,8,,
1,1,8,8,17,,8<4[8:1]*V64[8:1],8,4>8[8:1]*V28[8:1],,8,,,,,,
4,4,3,3,24,,3>1[8:1],3,6<1[8:1],,3v8[8:1],,6,,3,,
6<1[8:3],,,,5,,4,,,,5,,{32}48,37,26,15,{8}48,

{16}7-3[8:1],8,6,1,7,,1,1,8,8,2,,1b/6b,,7b/8b,,
2-6[8:1],1,3,8,2,,8,8,1,1,7,,1,1,2,3,
7-3[8:1],8,6,1,7,,1,1,8,8,2,,8,8,17,,
2-5[8:1],1,3,8,2,,7-4[8:1],8,6,1,7,,1,1,2,3,
7,2,6,1,5,8,6,1,7<4[8:1],8,7,,1,1,2,3,
8,3,7,2,6,1,7,2,8<5[8:1],3,8,3,8,,3,,
7,2,6,1,5,8,6,1,7<4[8:1],2,7,,1,1,2,3,
7-4[8:1],8,6,1,7,,2,2,1<5[8:1],1,2,,{32}5,4,3,2,{8}1,

{16}
6,,1>3[8:1],,8,7,1<6[8:1],,8,5-1[8:1],1,,4,5,,,
3,,8<6[8:1],,1,2,8>3[8:1],,1,4-8[8:1],8,,5,4,,,
5,,8>2[8:1],,7,6,8<5[8:1],,7,4-8[8:1],8,,3,4,,,
7,8,16,,1,28,,7,{32}1,2,3,4,1,2,3,4,8,7,6,5,8,7,6,5,
{16}
3,,8<6[8:1],,1,2,8>3[8:1],,1,4w8[8:1],8,,5,4,,,
6,,1>3[8:1],,8,7,1<6[8:1],,8,5w1[8:1],1,,4,5,,,
3,,1<7[8:1],,2,3,1>4[8:1],,2,5w1[8:1],1,,6,5,,,
37,,,37,,,26,,26,,,,8,1,18,,

{16}7-5[8:1],,68,,8,8,,3,
{32}8b,1,2,3,4,5,1b,8,7,6,5,4,8b,7,6,5,
{16}2-4[8:1],,31,,1,1,,6,
{32}1b,8,7,6,5,4,8b,1,2,3,4,5,1b,2,3,4,
{16}7-5[8:1],,68,,8,8,,3,
{32}8,1,2,3,4,5,1,8,7,6,5,4,8,7,6,5,
{16}2-4[8:1],,31,,1,1,,6,
3,,3,7,,{32}15,26,37,48,{16}15,
{16}2-4[8:1],,31,,1,1,,6,
{32}2,3,4,5,1,2,3,4,8,1,2,3,7,8,1,2,
{16}7-5[8:1],,68,,8,8,,3,
{32}7,6,5,4,8,7,6,5,1,8,7,6,2,1,8,7,
{16}1-3[8:1],,28,,8,8,,6,
{32}1,2,3,4,8,1,2,3,7,8,1,2,6,7,8,1,
{16}2,,4,5,36,,1,,2,1,28,,{32}37,48,15,26,{8}37,
2,,,2,,,2,,,2,,7,,7,2,,

{1},,E


  • ミスなどありましたら修正お願いします -- Rh+ (2019-06-17 23:25:27)
  • リマスターエラーとでます -- 名無しさん (2020-05-03 22:18:50)
  • /と*がつながりエラーが出ていたので修正しました。 -- Igniser. (2020-05-07 14:04:12)
名前:
コメント:

タグ:

+ タグ編集
  • タグ:

このサイトはreCAPTCHAによって保護されており、Googleの プライバシーポリシー利用規約 が適用されます。

最終更新:2020年05月07日 14:04