Death Scythe

BPM EASY BASIC ADVANCED EXPERT MASTER Re:MASTER
182 2 5 7+ 11 13 14

EASY


BASIC

(182){1},
{2}1,1,
{1}1h[2:1],
{2}8,8,
{1}8h[2:1],
{2}1,1,
{1}1h[2:1],
{2}8,8,
{1}8h[2:1],
{4}1/8,,1/8,1/8,
{2}2,2,
{4}3,,3,3,
{2}4,4,
{4}5,,5,5,
{2}6,6,
{4}7,,7,7,
{2}8,8,
{1}1h[4:3],
{2}8,8,
{1}8-3[4:1],
{2}3,3,
{1}3-6[4:1],
{2}6,6,
{1}6-1[4:1],
{2}1/2,1/2,
{1}1h[4:7]/2h[4:7],,
{2}2,2,
{2}1,1,
{1}8-4[4:1],
{1}1-5[4:1],
{2}7,7,
{2}8,8,
{1}1-5[4:1],
{1}8-4[4:1],
{2}2,2,
{1}2b,
{2}7,7,
{1}7b,
{2}3,2,
{1}1b/2b,
{2}6,7,
{1}7b/8b,
{2}7,7,
{1}6h[2:1],
{2}5,5,
{2}3/4,3/4,
{2}2,2,
{1}3h[2:1],
{2}4,4,
{2}5/6,5/6,
{4}6,6,6,,
{1}7h[2:1],
{4}8,8,8,,
{2}1/2,1/2,
{4}2,2,2,,
{1}1h[2:1],
{4}8,8,8,,
{1}7h[4:7],
{1}8h[4:3],
{1}6,
{1}5,
{1}4,
{1}3,
{1}4h[2:1],
{1}6h[2:1],
{1}2h[2:1],
{1}8h[2:1],
{4}1,1,1,1,
{4}1,1,8,,
{4}1,1,7,,
{1}1h[2:1],
{1}8h[2:1],
{4}8,8,1,,
{4}8,8,2,,
{1}8h[2:1],
{1}1h[2:1],
{4}1,1,1/8,,
{4}1,1,1/7,,
{1}8-4[4:1],
{1}1-5[4:1],
{4}8,8,1/8,,
{4}8,8,2/8,,
{1}1-5[4:1],
{1}8-4[4:1],
{2}2,2,
{1}2b,
{2}7,7,
{1}7b,
{4},1/8,
E

ADVANCED

(182){1},
{2}1,1h[8:3],{1},
{2}8,8h[8:3],{1},
{8}1/2,,,,2,,,1b,{1},
{8}7/8,,,,7,,,8b,{1},
{1}1-4[4:1]/8-5[4:1],
{2}3,8,
{4}2,,1,1,
{2}1,7,
{4}8,,6,6,
{2}6,8,
{4}1,,3,3,
{2}3/4,5/6,
{1}1-4[4:1]/8-5[4:1],
{4}1,2,,,
{4}7,6,,,
{4}3,4,,,
{4}5,5,4,4,
{4}6,5,,,
{4}2,1,,,
{4}7,8,,,
{1}1h[4:7]/8h[4:7],,
{4}1,1,2,2,
{4}3,3,4,4,
{4}5,5,6,6,
{4}7,7,8,8b,
{1}1-5[4:1],
{1}8-4[4:1],
{1}3-8[4:1],
{1}6-1[4:1],
{8}2,2,,,7,7,,,
{8}1b,1b,,,,,,,
{8}6,6,,,3,3,,,
{8}8b,8b,,,,,,,
{1}2h[2:1],
{1}4h[2:1],
{1}6h[2:1],
{1}8h[2:1],
{4}2,1,8,7,
{4}6,5,4,3,
{4}3,4,5,6,
{8}7h[8:3],,,6,,,,,
{4}8,1,2,3,
{4}4,5,6,7,
{4}7,6,5,4,
{8}3h[8:3],,,4,,,,,
{4}1,5/6,,3/4,
{4},7/8,,1/2,
{4},1/5,,2/6,
{4},3/7,3/7,4b/8b,
{4}7,5/6,,3/4,
{4},7/8,,1/2,
{4},4/5,,6h[1:1],{1},
{1}5-1[4:1],
{4}3h[4:3],,,5,
{4}5h[4:3],,,1,
{4}1h[4:3],,,7,
{4}7h[4:3],,,2,
{4}2h[4:3],,,8,
{4}8h[4:3],,,4,
{4}4h[4:3],,,5,
{1}5h[4:3],
{4}1,1,8,8b,
{4}1,5,3,7,
{4}2,6,4,8,
{4}1,3,7,5,
{4}1/2,7/8,1/2,7/8,
{4}8,4,7,3,
{4}6,2,5,1,
{2}8h[2:1],4,
{4}6,7,8,1b/8b,
{8}2,2,2,,1,1,1,,
{8}8,8,8,,7,7,7,,
{8}4,4,4,,3,3,3,,
{4}1/2,3/4,5/6,7/8,
{8}7,7,7,,8,8,8,,
{8}1,1,1,,2,2,2,,
{8}5,5,5,,6,6,6,,
{4}7/8,5/6,3/4,1/2,
{8}2,2,,,7,7,,,
{8}1b/2b,7b/8b,,,,,,,
{8}6,6,,,3,3,,,
{8}7b/8b,1b/2b,,,,,,,
{4},1h[4:13]/8h[4:13],{1},,,,
E

EXPERT

(182){1},
{8}3/4,3/4,,,6/7,6/7,,2/1^6[8:3],{1},
{8}1/7,1/7,,,3/5,3/5,,7h[2:1],
{8},,,6h[8:3],,,,,
{8}5/6,5/6,,,2/3,2/3,,7^4[8:3]/8^3[8:3],{1},
{8}2/8,2/8,,,4/6,4/6,,2-6[8:5],
{8},,,,,,8,8^3[8:5],{1},
{8}2,,4,3,,5,4,,
{8}6,5,,7,1,,1/8,,
{8}7,,5,6,,4,5,,
{8}3,4,,2,8,,1/8,,
{8}7,,2,6,,3,1,,
{8}4,6,,5,2,,2/7,,
{8}2,1,8,7,6,5,3/7,,
{8}7,8,1,2,3,4,2b/6b,,
{8}8,7,6,,3,4,3,,
{8}2,3,4,,6,5,6,7,
{8}5,4,3,,8,1,8,,
{8}7,3,5,,1,2,1,8,
{8}7,2,1,,6,3,5,,
{8}2,6,5,,7,2,8,1,
{8}7,8,1/7,,2,1,2/8,,
{1}4-8[2:1],
{1}7h[4:3],
{8}3,5,3,5,7,5,7,1,
{8}7,1,3,1,3,5,2/7,,
{8}2,2,5,4,8,8,4,5,
{8}1,1,2,2,3,4,5,,
{8}6,4,6,4,2,4,2,8,
{8}2,8,6,8,6,4,2/7,,
{8}7,7,4,5,1,1,5,4,
{8}8,8,7,7,6,5,4,,
{8}2,1,,,6,5,,,
{8}1b/2b,3/8,,5,,6,4/7,,
{8}7,8,,,3,4,,,
{8}7b/8b,1/6,,4,,3,2/5,,
{8}1/2,1/2,3,,5/6,5/6,7,,
{8}1/7,1/7,,2,,3,4/6,,
{8}7/8,7/8,6,,3/4,3/4,2,,
{8}2/8,2/8,,7,,6,3b/5b,,
{8}1,2,3,,5,2,4,3-7[4:1],
{8},,,,,6,6,,
{8}8,7,6,,4,7,5,1-5[4:1],
{8},,,8-4[4:1],,,,,
{8}7,6,5,,2,6,4,5-1[4:1],
{8},,,,,7,7,,
{8}8,1,2,,6,1,5,2h[2:1],
{8},,4,4h[8:3],,,5,,
{8}2/6,1,8,,3/7,6,5,5^2[4:1],
{8},,,,,6,6,4,
{8}3/7,2,8,,2/6,3,7,1h[2:1],
{8},,6,6h[8:3],,,4,,
{8}1/5,2,6,,3/7,8,2,2^5[4:1],
{8},,,,,5,5,4,
{8}2/6,3,5,,3/7,6,4,8h[8:15],
{8},,,,,,,4h[8:7],{1},
{4}1,,,2,
{4}3,,,8,
{4}7,,,6,
{4}4,,,3,
{8}5/6,,,6,,7,,8,
{8}1/3,,,2,,1,,8,
{8}2/7,,,5,,4,,3,
{1}2^7[2:1]/6^3[2:1],
{8}1/2,,7,7/8,,1,2b/7b,,
{8}1,6,5,8,3,4,1,6,
{8}5,7,3,4,3,6,4,5,
{8}3,4,2,5,1,6,8,7,
{8}2,2h[4:1],3,3h[4:1],4,4h[8:1],5b,,
{8}8,3,4,1,6,5,7,3,
{8}4,2,6,5,6,3,5,4,
{8}6,5,7,4,8,3,1,2,
{8}7,7h[4:1],6,6h[4:1],5,5h[8:1],4b,,
{8}1,2,3,7,6,5,2,3,
{16}4,,6,,5,,3,4,3,,5,,7,,8,,
{8}1,5,2,6,3,7,4,8,
{8}5-1[8:1],5,6,6,7^4[8:1],7,8b,,
{8}8,7,6,2,3,4,7,6,
{16}5,,3,,4,,6,5,6,,4,,2,,1,,
{8}8,4,7,3,6,2,5,1,
{8}4-8[8:1],4,3,3,2^5[8:1],2,1b,,
{8}2,1/3,,,6,5/7,,,
{8}3,2/4-8[4:1],,,,,1b,,
{8}7,6/8,,,3,2/4,,,
{8}6,7/5-1[4:1],,,,,8b,,
{1}2-6[4:7]/8-4[4:7],,,
E

MASTER

(182){8}
12,8,,,78,6^3[4:1],,,
,,,,,4,5,6,
78,1,,,21,3^6[4:1],,,
,3,4,5,,2,1,8,
67,5,,,34,6^3[4:1],,,
,,,,,7,8,1,
23,4,,,56,4^7[4:1],,,
,,,,,,,,
4,4-8[8:1],,,5-1[8:1],,,,

78,6,5,4,3,2,18,2,
3,4,5,6,7^4[8:1]/8,,,,
21,3,4,5,6,7,81,7,
6,5,4,3,2^5[8:1]/1,,,,
78,6,5,34,2,1,78,6,
5,34,2,1,8-3[8:1]/7,,,,
21,3,4,65,7,8,21,3,
4,65,7,8,1-6[8:1]/2,,,,
7h[8:3],6,5,4h[8:3],3,2,1h[8:3],2,
3,4h[8:3],5,6,7-3[8:1],,,,
2h[8:3],3,4,5h[8:3],6,7,8h[8:3],7,
6,5h[8:3],4,3,2-6[8:1],,,,
7^4[8:1],8,1,2^7[8:1],3,4,5^2[8:1],6,
7,8^5[8:1],1,2,3^8[8:1],,,,
2^5[8:1],1,8,7^2[8:1],6,5,4^7[4:1],,
7^2[4:1],,,,,,,,

2,2-5[8:1],,8-5[8:1],,1-5[8:1],,8,
{16}
8b,,2,1,2,,8,,7,,6,,5,,3,4,
3,,2,,1,,8,,7,,6,5,6,,3,,
4,,5,,6,,7,8,7,,4,,3,,2,,
1-4[8:1],,1,,7-4[8:1],,7,,1^4[8:1],,1,,8-4[8:1],,8,,
1,,7,8,7,,1,,2,,3,,4,,6,5,
6,,7,,8,,1,,2,,3,4,3,,6,,
5,,4,,3,,2,1,{8}2,5,6,7,
8-5[8:1],8,2-5[8:1],2,8^5[8:1],8,1-5[8:1],1,
8-4[8:1],8,,,1-5[8:1],1,,,
8-4[8:1],4-7[8:1],7-3[4:1],,3^8[4:1],,8b,,
7-4[8:1],7,,,2-5[8:1],2,,,
1-5[8:1],5-2[8:1],2-6[4:1],,6^1[4:1],,1b,,
2^7[8:1],7^4[8:1],,,7^2[8:1],2^5[8:1],,,
6,5,4,3,2^5[8:1],1,8b,,
7^2[8:1],2^5[8:1],,,2^7[8:1],7^4[8:1],,,
3,4,5,6,7^4[8:1],8,1b,2,

{16}
34,,2,,1,,8,,7,,6^1[8:1],,5,,4,,
,,2,,2,,3,4,3,,1,,8,,7,,
65,,7,,8,,1,,2,,3^8[8:1],,4,,5,,
,,7,,7,,6,5,6,,4,,3,,2,,
8^3[8:1]/1,,7,,6,,5,,4,,3^6[8:1],,2,,1,,
,,1,,2,,3,4,3,,5,,6,,7,,
1^6[8:1]/8,,2,,3,,4,,5,,6^3[8:1],,7,,8,,
,,2,,2,,3,4,3,,5,,6,,7,,
8h[2:1],,7,,6,,5,,4h[4:1],,5,,6^3[8:1],,7,,
,,1,,2,,3,4,3,,6,,7,,8,,
1h[2:1],,2,,3,,4,,5h[4:1],,4,,3^6[8:1],,2,,
,,8,,7,,6,5,6,,3,,2,,1,,
8^3[8:1],,7,,6,,5,,4,,3,,2^5[8:1],,1,,
,,6,,5,,3,4,3,,2,,1,,7,8,
7,,1,,2,,3,,4,,5,,6,,7^4[8:1],,
,,1^6[8:1],,,,3^8[8:1],,,,5^2[8:1],,,,8-4[2:1],,

{8}
8,,,,,8,7^4[4:1],3,
4^1[4:1],,,,,1,2^5[4:1],6,
5^8[4:1],,,1h[8:3],,,2,3,
4,,,8h[4:1],,7,6,5,
{1}4^7[2:1],
{8}
7^4[2:1],,,,,7,6,5,
4,,,{16}3,4,{8}3^6[4:1],,,,
7h[8:3],,,8h[4:1],,1,8,7,
6,5-1[8:1],,4-8[4:1],,1-5[8:1],,,
{16}7,8,7,,5,,2,1,2,,4,,8,1,8,,

1b/6b,,7,8,7,,38,,2,1,2,,25,,3,4,
3,,47,,6,5,6,,25,,3,4,3,,5,,
6,,7,8,7,,3,4,3,,5,,6,,7,,
8-3[8:1],,8,,2-5[8:1],,2,,7-4[8:1],,7,,1-6[8:1],,1,,
8b,,2,1,2,,61,,7,8,7,,74,,6,5,
6,,52,,3,4,3,,74,,6,5,6,,4,,
3,,2,1,2,,6,5,6,,4,,3,,2,,
1-6[8:1],,1,,7-4[8:1],,7,,2-5[8:1],,2,,8-3[8:1],,8,,
1b,,7,8,7,,38,,2,1,2,,25,,3,4,
3,,6,5,7,5,6,,3,4,2,4,3,,68,,
7,,3,4,2,5,3,4,3,,6,,7,,8,,
1^6[8:1],,1,,3^8[8:1],,3,,5^2[8:1],,5,,7^4[8:1],,7,,
3b,,2,1,2,,16,,7,8,7,,47,,6,5,
6,,3,4,2,4,3,,6,5,7,5,6,,13,,
2,,6,5,7,4,6,5,6,,3,,2,,1,,
8^3[8:1],,8,,6^1[8:1],,6,,4^7[8:1],,4,,2^5[8:1],,2,,
1-6[8:1],,1b,,,,,,8^3[8:1],,8b,,,,,,
12,,38,,6,5,7,4,5,2,4,3,4,,,,
8-3[8:1],,8b,,,,,,1^6[8:1],,1b,,,,,,
87,,61,,3,4,2,5,4,7,5,6,5,,,,
{4}
2^7[4:7]/7-4[4:7],2b/7b,,,
{1},
,,,
E

Re:MASTER

(182)
{1},
{8}3/4,5/2,,,5/6,7/4>5[2:1],,8h[8:5],
,,,,,7,6,5,
4/3,5/2,,,5/6,7-4[8:1]/4-8[8:1],,7/4,
,6,7,8,,2/1,3,4,
5/6,7/4,,,3/4,2/5<4[2:1],,1h[8:5],
,,,,,2,3,4,
5/6,4/7,,,3/4,5/2>8[2:1],,6h[8:5],
,,,,,,,1/2,
1/2,8/3-8[8:1],,7,7-4[8:1],,3b,,
1-6[8:1],8,1,7-4[8:1],8,7,2-5[8:1],1,
2,8-4[8:1],1,8,1-5[8:1]*-3[8:1],,1,,
7-4[8:1],8,7,1-5[8:1],8,1,8-4[8:1],1,
8,2-5[8:1],1,2,7-5[8:1]*-3[8:1],,7,,
1-6[8:1],8,1,7-4[8:1],8,7,2-5[8:1],1,
2,8-4[8:1],1,8,2-4[8:1]*-6[8:1],,2,,
8/5,7,6,1/5,2,3,4/7,6,
{16}1/5,,2,,3,,4/8,,4b/8b,,,,1/2,8,7,6,
{8}4/5h[4:1],3,2,8/1h[4:1],7,6,5/4,3/6,
2>5[8:1],1,8,7p4[4:1],4,,,,
3/5h[4:1],2,1,7/8h[4:1],6,5,3/4,2/5,
{16}1>4[8:1],,5,,6,,7,,8h[16:3],,,6h[16:3],,,4,,
{8}8>3[8:1],7,6,5<8[8:1],4,3,2>5[8:1],1,
8,7>2[8:1],6,5,4<7[8:1],3,2,1,
{16}8,,7/1,,6/2,,5/3,,6/2,,7/1,,8,,6/2,5/3,
{1}4b<4[2:1]*>4[2:1],
{32}3,,,,7,6,5h[16:3],,,,,,1,2,3h[16:3],,,,,,8,7,6h[16:3],,,,,,1,,,,
{16}7b/3,,2-5[8:1],1,2,,2/1,,7-4[8:1],8,7,,7/8,,1,8,
1,,3,4,3,4,2,,6,5,6,5,7,,4/6,,
5/3,,2,4,3,4,1,4,2h[8:1],,1,2,1,,8/3,,
{8}1,3/5,8,4/6,1,2/4,8,5/7,
{16}3b/6,,7-4[8:1],8,7,,7/8,,2-5[8:1],1,2,,2/1,,8,1,
8,,6,5,6,5,7,,3,4,3,4,2,,5/3,,
4/6,,7,5,6,5,8,5,7h[8:1],,8,7,8,,1/6,,
{8}8,4/6,1,3/5,8,5/7,1,2/4,
1b/5,3/7,,,8/4,2/6,,,
{16}7,6,5,4,1,2,3,4,1,8,7,6,5/1,,,,
{8}8b/4,2/6,,,1/5,3/7,,,
{16}2,3,4,5,8,7,6,5,8,1,2,3,4/7,,,,
{8}3b-1[8:1]/8b-4[8:1],1/4,,,1-5[8:1]/6-8[8:1],5/8,,,
{16}8/4,7,6,5,4/1,2,3,4,5/1-5[8:1],8,7,6,5b/1b,,,,
{8}1b-5[8:1]/6b-8[8:1],5/8,,,3-1[8:1]/8-4[8:1],1/4,,,
{16}5/1,2,3,4,5/8,7,6,5,4/8-4[8:1],1,2,3,4b/8b,,,,
{8}2pp5[4:1],5,6,7,8qq5[4:1],4,3,2,
1,2,3/4,5,4/6,7,5/8,,
7qq4[4:1],4,3,2,1pp4[4:1],5,6,7,
8,7,6/5,4,5/3,2,1/4,,
2pp5[4:1],5,6,7,8qq5[4:1],4,3,2,
1,2,3/4,5,4/6,7,5/8,,
1/2,3,4/5,6,7/8,6,4/5,3,
{16}1/2,,3,,7/8,,6,,2,1,3,8,4,7,5,6,
{8}3V15[4:1],5,6,7,8V62[4:1],2,3,4,
5h[4:1],8,6h[4:1],8,5h[8:1],8,6/1,,
6V84[4:1],4,3,2,1V37[4:1],7,6,5,
{16}4h[4:1],,1,,3h[4:1],,1,,4,3,5,2,6,1,7,8,
{8}7V51[4:1],1,2,3,4V26[4:1],6,7,8,
1h[4:1],4,2h[4:1],4,1h[8:1],4,5/2,,
3/4,3/4,2/5,2/5,1/6,1/6,7/8,7/8,
{16}8,7,1,6,2,5,3,4,2,1,3,8,4,7,5,6,
{1}4b/7bpp4[2:1],
{4}1>6[8:5],,,7,
{8}8V64[2:1],,,4,,,2,,
1V35[2:1],,,5,,,7,,
{1}8z4[2:1],
{4}3<6[2:1],,,7,
{16}8,,,,,,1b,1b,1b,,,,,,,,
{8}2h[8:3],,,7h[4:1],,3,6,4,
{32}5,,,,2b,3,4h[16:3],,,,,,8b,7,6h[16:3],,,,,,1b,2,3h[16:3],,,,,,7h[8:1],,,,
{16}8,7,8,,1/6,,2,1,2,,3/8,,2,1,2,,
6b/3b,,7-4[8:1],8,6,,7/1,,2-5[8:1],1,3,,2/8,,7,8,
6,,3,4,2,4,1,,6,5,7,5,8,,1/8,,
1/8,,2,1,3,8,4,7,5h[8:1],,6,5,6,,7/4,,
{8}5/2>5[8:1],1,2/7<4[8:1],8,7/2-6[8:1],1,8/2b,,
{16}7b/3b,,2-5[8:1],1,3,,2/8,,7-4[8:1],8,6,,7/1,,2,1,
3,,6,5,7,5,8,,3,4,2,4,1,,1/8,,
1/8,,7,8,6,1,5,2,4h[8:1],,3,4,3,,2/5,,
{8}4/7<4[8:1],8,7/2>5[8:1],1,2/7-3[8:1],8,1/7b,,
{16}6b/2b,,7-4[8:1],8,6,,7/3,,2-5[8:1],1,3,,2/6,,7,8,
6,,3,4,3,2,3,,6,5,6,7,6,,4/5,,
4/5,,6,5,7,4,8,3,1h[8:1],,2,1,2,,8/3,,
{8}7/1-6[8:1],8,3/1-5[8:1],2,1/6,7,8b/4b,,
{16}7b/3b,,2-5[8:1],1,3,,2/6,,7-4[8:1],8,6,,7/3,,2,1,
3,,6,5,6,7,6,,3,4,3,2,3,,4/5,,
4/5,,3,4,2,5,1,6,8h[8:1],,7,8,7,,1/6,,
{8}2/8-3[8:1],1,6/8-4[8:1],7,8/3,2,1b/5b,,
4/8w4[8:1],2/6,,,1/5,3/7,,,
{24}8,7,6,2,3,4,1,2,3,7,6,5,
{32}8,7,6,5,4,3,2,1,
{4}4b/8b,
{8}5/1w5[8:1],7/3,,,8/4,6/2,,,
{24}1,2,3,7,6,5,8,7,6,2,3,4,
{32}1,2,3,4,5,6,7,8,
{4}1b/5b,7-4[1:4]/2<7[1:4],7b/2b,,,{1},,,,
E


名前:
コメント:

タグ:

+ タグ編集
  • タグ:

このサイトはreCAPTCHAによって保護されており、Googleの プライバシーポリシー利用規約 が適用されます。

最終更新:2022年05月06日 04:25