君の知らない物語

アーティスト

BPM EASY BASIC ADVANCED EXPERT MASTER
165 3 2 6 9 11

EXPERT MASTER Re:MASTER
譜面制作者

EASY


BASIC

(165.0){1},
{1}3,
{1}3,
{1}4,
{1}4,
{1}5,
{1}5,
{1}6h[1:1],,
{2}6,6,
{2}5,5,
{2}4,4,
{2}3,3b,
{1}2,
{1}2,
{1}1,
{1}1,
{1}8h[1:1],,
{1}1h[1:1],,
{2}8,8,
{1}8,
{2}7,7,
{1}7,
{1}6h[1:1],,
{1}5h[1:1],,
{1}4h[1:1]/5h[1:1],,
{1}5,
{1}4,
{1}3,
{1}2,
{1}1-4[4:3],,
{1}8-5[4:3],,
{2}1,1,
{2}2,2,
{1}3h[2:1],
{1}4h[2:1],
{2}5,5,
{2}6,6,
{1}7h[2:1],
{1}8h[2:1],
{2}1,1,
{2}8,8,
{2}1,1,
{2}8,8,
{1}7h[2:1],
{1}6h[2:1],
{1}5h[2:1],
{1}4h[2:1],
{1}3h[2:1],
{1}2h[2:1],
{1}1h[2:1],
{2}8,1,
{1}1b/8b,
E

ADVANCED

(165.0){1},
{4}1,2,3,4,
{4}8,7,6,5,
{4}2,1,8,7,
{4}3,4,5,6b,
{1}1-4[2:1],
{1}5-8[2:1],
{8}2h[8:3],,,,,,,1h[2:1],
{8},,,,,1b,,,
{4}1,2,3,,
{8}3,,,4,,,5,,
{721}6h[8:7],,,,,,,,,,,,,,,,,,,,,,,,,,,,,,,,,,,,,,,,,,,,,,,,,,,,,,,,,,,,,,,,,,,,,,,,,,,,,,,,,,,,,,,,,,,,,,,,,,,,,,,,,,,,,,,,,,,,,,,,,,,,,,,,,,,,,,,,,,,,,,,,,,,,,,,,,,,,,,,,,,,,,,,,,,,,,,,,,,,,,,,,,,,,,,,,,,,,,,,,,,,,,,,,,,,,,,,,,,,,,,,,,,,,,,,,,,,,,,,,,,,,,,,,,,,,,,,,,,,,,,,,,,,,,,,,,,,,,,,,,,,,,,,,,,,,,,,,,,,,,,,,,,,,,,,,,,,,,,,,,,,,,,,,,,,,,,,,,,,,,,,,,,,,,,,,,,,,,,,,,,,,,,,,,,,,,,,,,,,,,,,,,,,,,,,,,,,,,,,,,,,,,,,,,,,,,,,,,,,,,,,,,,,,,,,,,,,,,,,,,,,,,,,,,,,,,,,,,,,,,,,,,,,,,,,,,,,,,,,,,,,,,,,,,,,,,,,,,,,,,,,,,,,,,,,,,,,,,,,,,,,,,,,,,,,,,,,,,,,,,,,,,,,,,,,,,,,,,,,,,,,,,,,,,,,,,,,,,,,,,,,,,,,,,,,,,,,,,,,,,,,,,,,,,,,,,,,,,,,,,,,,,,,,,7h[1250:1097],,,,,,,,,,,,,,,,,,,,,,,,,,,,,,,,,,,,,,,,,,,,,,,,,,,,,,,,,,,,,,,,,,,,,,,,,,,,,,,,,,,,,,,,,,,,{1},
{4}7,7,6,6,
{4}5,5,4,,
{4}2,2,2,2,
{4}3b,8b,6b,,
{1}1-5[2:1],
{1}8-4[2:1],
{1}1-6[2:1],
{1}8-3[2:1],
{4}2,1,8,7,
{4}6,5,4h[4:1],,
{4}3,4,5,6,
{4}7,8,1h[4:1],,
{2}1/5,2/6,
{2}3/7,4/8,
{2}4/8,3/7,
{2}2/6,1/5,
{1}4h[2:3]/8h[2:3],,
{2}1,2,
{2}3,4,
{2}5,6,
{2}7,8,
{1}8h[1:1],
{2}1h[2:1],2h[2:1],
{1}3h[2:1],
{1}1b/8b,
{4}1/8,2,3,4,
{4}5/6,4,3,2,
{4}1/8,7,6,5,
{4}3/4,5,6,7,
{4}1/8,2,3,2,
{4}1/8,7,6,7,
{8}1/8,,,1/2,1/2,,,,
{4}3/4,7/8,5/6,1b/2b,
{4}1/8,7,6,5,
{4}4,3,2,1,
{4}1/8,2,3,4,
{4}5,6,7,1/8,
{1}8-4[2:1],
{1}1-5[2:1],
{1}3-7[2:1],
{1}6-2[2:1],
{4}8,7,6,5,
{4}4,3,2,1,
{1}8h[1:1],
{8}1,,8,8,,1-5[2:1],,,,,,,
E

EXPERT

(165.0){1},
{4}7/8,6,1/2,3,
{4}7/8,6,1/2,3,
{4}7/8,6,1/2,3,
{4}4/5,6,7/8,1b,
{4}6/7,5,2/3,4,
{4}6/7,5,2/3,4,
{8}1/6,,,4h[4:1]/7h[4:1],,,,2h[4:1]/5h[4:1],
{8},,,1-6[8:1]/2-5[8:1],,,,,
{4}7h[4:3],5,4,3,
{8}2h[8:3],,,1^6[4:1],,,,,
{8}2,,3,,4,,4/5,4/5,
{8},3,2,1,8,7,6,5,
{1}4^7[2:1],
{1}8^3[2:1],
{1}1-6[2:1],
{1}6-3[2:1],
{2}3h[2:1],2h[2:1],
{2}1h[2:1],8h[2:1],
{1}7^2[4:3],,
{4}7h[4:3],8,6,5,
{4}2h[4:3],1,3,4,
{4}6h[4:3],7,5,4,
{4}3h[4:3],2,4,5,
{2}6h[2:1],7h[2:1],
{2}8h[2:1],1h[2:1],
{2}2h[2:1],3h[2:1],
{2}4h[2:1],5h[2:1],
{1}6-2[4:3],
{4},,,1,
{4}8,7,6,5h[2:1],
{4},1,2,3,
{4}4,5,6,7,
{1}1^6[2:1]/8^3[2:1],
{4}5,3/4,2,1/8,
{4}7,5/6,4,2/3,
{8}1h[2:1],,,,8b,,6,7,
{8}8,,1,1-5[4:1],,,,,
{4}6,5/7,4,3/5,
{4}3,2/4,5,4/6,
{4}6,5/7,4,3/5,
{4}3,2/4,3/6,5/7,
{4}8,5/7,6,3/5,
{4}4,1/3,2,1,
{8}1-5[4:1],,,7,7-4[4:1],,,2,
{8}2-5[4:1],,,8,8-4[4:1],,,,
{4}3,2/5,6,4/7,
{4}3,2/5,7,6/8,
{4}1/6,3/8,2/5,4/7,
{4}2/5,3/8,1/6,4/7,
{8}6/2h[2:1],,,4,4,,,,
{8}3/7h[2:1],,,5,5,,,,
{8}5/1h[2:1],,,3,3,,,,
{8}4/8h[2:1],,,6,6,,,,
{2}5-1[4:1],4-8[4:1],
{2}6-1[4:1],3-8[4:1],
{8}1,,,8,,,2b/7b,,
{8}1h[4:1],,8,8,,1^6[2:1],,,,,,,
E

MASTER

(165){2}
1-6[8:1],8-3[8:1],
2-5[8:1],7-4[8:1],
3-7[8:1],6-2[8:1],
{4}13,24,57,68,
{2}2-6[8:1],4-7[8:1],
5-2[8:1],8-3[8:1],
{8}4,,5,6,,5,3,2h[4:1],
,4,5,6b,,6b,,,
3-7[2:1],,,,,,,,
1h[8:3],,,8h[8:3],,,7,,
6-1[2:1]/8h[4:3],,,,,,,18,
,8,1,7,2,6,3,5,

1,8,7,6b,5,4,3b,4,
5,6,7,8b,,1,,,
{2}6-3[2:1],3-8[2:1],
8-5[2:1],,
6h[2:1],4h[2:1],
1h[2:1],{8}8,,,4,
4-1[4:3],,,,,5,5-8[4:3],5,
{1},
{8}1,2,1,,2,3,2,,
3,4,3,4h[4:1],,5,,,
8,7,8,,7,6,7,,
6,5,6,5h[4:1],,4,,,
{1}2-5[2:1]/6-1[2:1],
8-3[2:1]/4-7[2:1],
{2}1-6[4:1],7-4[4:1],
5-2[4:1],3-8[4:1],
{1}1-4[4:5],
,

{8}
3,4,,3,34,,,,
6,5,,6,56,,,,
2,1,,2,12,,,,
7,8,,7,78,,,,
{2}4-1[4:3],,
6-2[4:1],3-7[4:1],
5-8[2:1],{8},,1,8,
{1}1^6[2:1]/8^3[2:1],

{4}
1-6[8:1],1,8-3[8:1],8,
1^6[8:1],1,8^3[8:1],8,
2-5[8:1],2,7-4[8:1],7,
2^5[8:1],2,7^4[8:1],7,
1-5[8:1],1,8-4[8:1],8,
3-6[8:1],3,7,8,
1-6[4:1]/2-5[4:1],,,{8},8-3[4:1],
{4}7-4[4:1],,,,
1-6[8:1],1,1-4[8:1],1,
8-3[8:1],8,8-5[8:1],8,
1-6[8:1],1-4[8:1],1-5[8:1],1b,
8-3[8:1],8-5[8:1],8-4[8:1],8b,
{8}
5,5,,5,3h[4:1]/4h[4:1],,,,
4,4,,4,5h[4:1]/6h[4:1],,,,
6,6,,6,1h[4:1]/3h[4:1],,,,
3,3,,3,7h[4:1]/8h[4:1],,,,
{4}
5-1[2:1],5,5,5,
4-8[2:1],4,4,4,
{8}
2b,,4,7b,,5,2b,,
45,45,,26,,37,,,
{1}
1^6[4:3]/2^5[4:3],
,,
E

名前:
コメント:

タグ:

+ タグ編集
  • タグ:

このサイトはreCAPTCHAによって保護されており、Googleの プライバシーポリシー利用規約 が適用されます。

最終更新:2022年06月18日 15:43