魔理沙は大変なものを盗んでいきました

BPM EASY BASIC ADVANCED EXPERT MASTER Re:MASTER
170 2 6 6 9 13 -

EXPERT MASTER Re:MASTER
譜面制作者 はっぴー はっぴー -

EASY


BASIC

(170.0){1},,,,
{2},3/4,
{2},3/4,
{2},3/4,
{1}1/2,
{2}6,5,
{2}4,3/4,
{2}3,4,
{2}5,5/6,
{2}5,4,
{2}5,4/5,
{1}6h[4:3],
{2}7,8,
{2}8,6,
{4}7,,5/6,5/6,
{2}4,3,
{4}2,,3/4,3/4,
{2}5,4,
{4}5,,4/5,4/5,
{1}3-6[16:5],
{4},,7/8,7/8,
{2},7,
{2},5,
{2},3,
{2},1,
{2}7,5,
{2}3,1,
{2}3,5,
{1}3-6[16:5],
{4},5,,7,
{4},6,6,6,
{4},5,,7,
{4},6,6/7,,
{4},4,,2,
{4},3,3,3,
{4},4,,2,
{4},3,2/3,,
{4}6,6,4,4,
{4}3,3,3,,
{4}6,6,4,4,
{4}3,3,3,,
{4}7,7,8,8,
{4}2,2,1,1,
{4},7/8,,,
{1}6-3[16:5],
{2}2b,1,
{2}8,7,
{2}7,5,
{4}4,3,2,,
{2}3,4,
{2}5,6,
{1}7/8,
{1}1/2,
{2}6,7,
{2}1,2,
{2}7,5,
{4}4,3,2,,
{2}3,4,
{2}5,6,
{1}4-8[16:5],,
{4}7,7,5,5,
{1}5b,
{4}2,2,4,4,
{1}4,
{4}6,6,5,5,
{2}4,3,
{4}4,4,5,5,
{1}5/6,
{4}2,2,4,4,
{1}4b,
{4}7,7,5,5,
{1}5,
{4}3,3,4,4,
{4}5,5,6,6,
{1}7h[2:1]/8h[2:1],
{1}1h[2:1]/2h[2:1],
{1}1b/8b,
E

ADVANCED

(170.0){1}1,
{1}8,
{1}1/2,
{2}7/8,1/8,
{2}2,2,
{2}6,6,
{2}4,4,
{4}8,8,8b,,
{4}7,7,6,6,
{4}5,5,4,4,
{4}2,2,3,3,
{4}4,4,5,5,
{4}8,7,6,5,
{4}4,3,2,1/8,
{2}2h[2:1],7h[2:1],
{4}1,1,8,8b,
{4}8,7,6,5,
{4}1,2,3,4,
{4}2,2,1,1,
{4}8,8,7/8,,
{4}3,3,4,4,
{4}5,5,5/6,,
{2}7/8,1/2,
{4}1/8,7/8,6/7,5b/6b,
{1}4-7[2:1],
{1}5-2[2:1],
{1}8-3[2:1],
{1}1-6[2:1],
{1}4,
{1}4,
{2}3/5,3/5,
{4}4,3/5,2/6,1b/7b,
{4}2,2,1,1,
{4}8,8,7,7,
{4}3,3,4,4,
{4}5,5,5/6,,
{4}7,7,8,8,
{4}1,1,2,2,
{4}6,6,5,5,
{4}4,4,3/5,,
{4}2,1,2,1,
{4}3,4,3,4,
{4}7,8,7,8,
{4}6,5,6,5,
{4}1,1,1,1,
{4}8,8,8,8,
{2}1/2,7/8,
{4}5/6,3/4,1b/2b,,
{1}1-5[2:1],
{1}8-4[2:1],
{2}4/5,4/5,
{4}3/6,2/7,1b/8b,,
{4}1,2,3,4,
{4}5,6,7,8,
{4}1h[8:3],,,3,
{1}3/4,
{1}2-7[2:1],
{1}6-3[2:1],
{2}2/6,2/6,
{4}3/7,4/8,1b/5b,,
{4}1,2,3h[4:1],4,
{4}8,7,6h[4:1],5,
{1}1-4[2:1],
{1}3-7[2:1],
{4}1,2,3,4,
{4}5,6,7,8,
{4}8,7,6,5,
{4}4,3,2,1/8,
{4}1,3,5,7,
{4}8,6,4,2,
{4}2,1,8,7,
{1}1b/8b,
{4}7,1,3,5,
{4}3,1,7,5,
{4}7,5,3,1,
{4}3,5,7,2,
{4}7,8,1,2,
{4}3,4,5,,
{1}5-1[2:1],
{1}3-8[2:1],
{1}1b/8b,
E

EXPERT

(170.0){4}7h[2:1],,4,4,
{4}2h[2:1],,5,5,
{4}6h[2:1],,1,1,
{4}3h[2:1],,8,8,
{2},2h[4:1]/3h[4:1],
{2},4h[4:1]/5h[4:1],
{2},6h[4:1]/7h[4:1],
{4}8,1,2b/7b,,
{4}2,3,4,5,
{8}6,,7h[4:1],,8,8,8,,
{4}7,6,5,4,
{8}3,,2h[4:1],,1,1,1,,
{4}2,3,4,5,
{8}6,,7h[4:1],,8,8,8,,
{4}1h[4:1],7h[2:1],5,5,
{8}3,,3h[4:1],,2,2,2,,
{4}2h[4:1],1,3h[4:1],4,
{8}6h[4:1],,5,,8,8,8,,
{4}7h[4:1],8,6h[4:1],5,
{8}3h[4:1],,4,,1,1,1,,
{4}2h[4:1],3h[4:1],4h[4:1],5h[4:1],
{8}6h[4:1],,7h[4:1],,1,1,8,,
{4}7h[4:1],6h[4:1],5h[4:1],4h[4:1],
{8}3h[4:1],,2h[4:1],,1,1,8,8,
{1}1^4[2:1],
{1}5^8[2:1],
{1}1^4[2:1],
{1}5^8[2:1],
{1}1^6[2:1],
{1}5^2[2:1],
{1}1^6[2:1],
{1}5^2[2:1],
{4}3/4,3/4,1/2,1/2,
{4}7/8,7/8,5/6,5/6,
{4}7/8,1/2,3/4,5/6,
{4}7/8,1-6[4:1]/2-5[4:1],,,
{4}5/6,5/6,7/8,7/8,
{4}1/2,1/2,3/4,3/4,
{4}1/2,7/8,5/6,3/4,
{4}1/2,7-4[4:1]/8-3[4:1],,,
{4}8h[4:1],7h[4:1],6h[4:1],5h[4:1],
{4}1h[4:1],2h[4:1],3h[4:1],4h[4:1],
{4}7h[4:1],8h[4:1],1h[4:1],2h[4:1],
{4}6h[4:1],5h[4:1],4h[4:1],3,
{4}1/8,7/8,6/7,5/6,
{4}1/8,1/2,2/3,3/4,
{4}1/8,2/7,3/6,4/5,
{4}2/7,1^4[4:1]/8^5[4:1],,,
{4}7h[4:3],1,8,6,
{4}2h[4:3],8,1,3,
{8}1/8,,1,,8,8,,1,
{8},8,8,,2/7,,,,
{4}6h[4:3],8,7,5,
{4}3h[4:3],1,2,4,
{8}6h[8:3],,,5h[8:3],,,4h[4:1],,
{4}3b,,1,2,
{4}3h[4:3],5,4,2,
{4}6h[4:3],4,5,7,
{8}4/5,,5,,4,4,,5,
{4},1h[4:1],8h[4:1],7h[4:1],
{1}6^3[8:3],
{1}3^6[8:3],
{1}1-4[8:3],,
{8}8,,7,,6,6,,5^2[2:1],{1},
{8}1,,2,,3,3,,4^7[2:1],{1},
{4}4,3,2,1,
{4}8,7,6,5,
{4}4/5,3/6,2b/7b,1^4[2:1]/8^5[2:1],{1},
{8}1,,2h[4:1],,3,3,,4-8[8:3],{1},
{8}8,,7h[4:1],,6,6,,5-1[8:3],{1},
{4}5h[4:1],6h[4:1],7h[4:1],8h[4:1],
{4}1h[4:1],2h[4:1],3h[4:1],4h[4:1],
{2}5-2[4:1],1-6[4:1],
{2}8-3[4:1],4-7[4:1],
{1}1b,
E

MASTER

(170){16}
8,,,1,,,2,,3h[4:1],,,,4,,,,
1,,,8,,,7,,6,,5,,56,,,,
2,,,3,,,4,,5h[4:1],,,,6,,,,
7,,,6,,,5,,4h[4:1],,,,3,,,,
2,,,3,,,4,,5^2[8:1],,,,,,,,
7,,,6,,,5,,4^7[8:1],,,,,,,,
3,,,2,,,1,,8^3[8:1],,,,,,,,
{8}45,,12,,8-3[8:1]/7-3[8:1],,,,

8,7,6,8,7,6,8,7,
6,8,7,6,5-1[8:1],5,,,
1,2,3,1,2,3,1,2,
3,1,2,3,4-8[8:1],4,,,
15,2,3,84,7,6,15,2,
3,84,7,6,5^2[8:1],5,,,
1h[4:1],,2h[4:1],,3^6[8:1],3,,,
1h[4:1],8,8h[4:1],1,1b,1b,1b,1b,

7,8,8,7,6,6,7,8,
8,7,6,6,7^4[8:1],7,,,
2,1,1,2,3,3,2,1,
1,2,3,3,2^5[8:1],2,,,
73,6,5,62,3,4,73,6,
5,62,3,4,3^8[8:1]/7^4[8:1],37,,,
{16}6,5,6,5,6,5,6,5,7,4,7,4,7,4,7,4,
6,5,6,5,6^1[8:1],5,6,5^2[4:1],{8},,,,

,3,,4,,5,,6,
,7,,8,,7,,6,
,5,,4,,3,,2,
,1,,8,8-4[8:1],,,,
{16}
3h[16:3],,,4,3,,3,,8,,7,,3,,,,
6h[16:3],,,5,6,,6,,1,,2,,6,,,,
3h[16:3],,,4,3,,3,,8,,7,,3,,,,
{8}
3-6[8:1],,,2-7[8:1],,,1b,,

34,2,3,2,34,5,4,5,
34,2,3,2,34,5,4,5,
34,2,3,4,35,4,3,2,
34,2,3,2-7[8:1],,,,,
65,7,6,7,65,4,5,4,
65,7,6,7,65,4,5,4,
65,7,6,5,64,5,6,7,
65,7,6,7-2[8:1],,,,,
{16}
3,4,3,,3,4,3,,6,5,6,,6,5,6,,
3,4,3,,6,5,6,,3,4,3,,6,5,6,,
2,1,2,,2,1,2,,7,8,7,,7,8,7,,
2,1,2,,7,8,7,,2,1,2,,7,8,7,,
{4}
1-6[8:1],7-4[8:1],2-5[8:1],8-3[8:1],
5-2[8:1],4-7[8:1],6-1[8:1],3-8[8:1],
2^5[8:1],6^1[8:1],2^7[8:1],6^3[8:1],
2^5[4:1],5^8[4:1],8b,,

{16}
1,,8,,7^4[8:1],,,,,,,2h[16:3],,,3,,
8,,1,,2^5[8:1],,,,,,,7h[16:3],,,6,,
1,,8,,7h[8:5],,,,6,,6,,,,2h[8:5],,
,,3,,3,,,,7b,,,,1,,2,,
3,,4,,5^2[8:1],,,,,,,8h[16:3],,,7,,
6,,5,,4^7[8:1],,,,,,,1h[16:3],,,2,,
3-7[8:3],,,,,,1-5[8:3],,,,,,6^3[8:3],,,,
,,,,,,,,2,,6,5,6,,4,,
7^4[8:1],,8,,,,,,1h[16:3],,,2h[16:3],,,3,,
2^5[8:1],,1,,,,,,8h[16:3],,,7h[16:3],,,6,,
5,,4,,3^6[8:1],,,,7^4[8:1],,7,,,,2b,,
,,1,,1h[4:1],,,,8h[16:3],,,7h[16:3],,,6-2[8:3],,
{8},,,8-4[4:1],,,2^5[4:1],,
8^5[4:1],,,3^8[4:1],,,7^4[4:1],,
1-5[4:1],,,8^3[4:1],,,,,
4,5,6,7,{32}8,7,6,5,4,3,2,1,{16}8b,,,,

2h[4:1],,,,3,,,,6h[16:3],,,7h[16:3],,,8,,
2,,6,5,7,5,6,,3,4,3^8[8:1],4,3,,,,
7h[4:1],,,,5,,,,3h[16:3],,,2h[16:3],,,1,,
6,5,7,,3,4,2,,6^3[8:1],5,6,,{4},
1h[4:1],2,3-6[8:1]/8-5[8:1],,
2^5[8:1]/6^1[8:1],,2-5[8:1]/8-5[8:1],,
7-2[4:1],2^7[4:1],7^4[4:1],4b,
,,,,
{16}
6,,,,47,,,,1h[16:3],,,2h[16:3],,,3,,
7,,3,4,2,4,3,,6,5,6^1[8:1],4,6,,,,
3,,,,25,,,,8h[16:3],,,7h[16:3],,,6,,
3,4,2,,6,5,7,,3^6[8:1],4,3,,,,,,
8h[4:1],,,,7,,,,6h[16:3],,,5h[16:3],,,4^7[8:1],,
,,,,,,8,,8h[4:1],,,,1b,,,,
1h[16:3],,,2h[16:3],,,3,,8h[16:3],,,7h[16:3],,,6,,
2h[16:3],,,3h[16:3],,,4,,7h[16:3],,,6h[16:3],,,5,,
{1}4b,
,,,,,,
E

名前:
コメント:

タグ:

+ タグ編集
  • タグ:

このサイトはreCAPTCHAによって保護されており、Googleの プライバシーポリシー利用規約 が適用されます。

最終更新:2022年08月10日 17:15