Help me, ERINNNNNN!!

アーティスト ビートまりお(COOL&CREATE)

BPM EASY BASIC ADVANCED EXPERT MASTER
183 2 6 6 11 12

EASY


BASIC

(183.0){1},,,,,,
{4}3,4,3,4,{1},
{4}2,3,2,3,{1},
{4}2,3,2,3,
{4}2,3,2,3,
{2}2h[4:1],2b/7b,
{2}7/8,1/2,
{2}7/8,1/2,
{4}7,7,8,,
{4}2,3,2,3,
{2}2,1,
{2}8,7,
{4}8,8,1,,
{1}2h[2:1]/7h[2:1],
{4}3,3,4,,
{4}6,6,5,,
{2}4/5,4/5,
{4}2,3,2,3,
{1}2h[2:1],
{1}7h[2:1],
{2}2,7,
{1}1b/8b,
{4},7,,7,
{4},6,,6,
{4},2,,2,
{4},3,,3,
{4},5,,5,
{4},6,,6,
{4},4,,4-1[2:1],{1},
{4},8,,7,
{4},1,,2,
{4},3,,4,
{4},6,,5,
{4},5/6,,5/6,
{4},3/4,,3/4,
{4},2,,1-5[2:1],{1},
{4}2,3,2,3,
{4}2,3,2h[4:1],,
{2}8,8,
{2}8h[4:1],8,
{4}2,3,2,3,
{4}2,3,2h[4:1],,
{4}8,8,1,,
{1}2h[2:1]/7h[2:1],
{2}7/8,1/2,
{2}7/8,7/8,
{2}1h[4:1],1,
{4}2,3,2,3,
{1}2h[2:1],
{1}7h[2:1],
{2}1/8,1/8,
{4}2,3,2h[4:1],,
{2}1/2,7/8,
{4}1/2,1/2,1/2,,
{2}1h[4:1],1,
{4}2,3,2,3,
{2}2,3/4,
{2}7,5/6,
{4}7,7,8,,
{1}1-4[2:1]/8-5[2:1],
{2}3,3,
{2}6,6,
{4}8,8,8,,
{4}2,3,2,3,
{2}2,2,
{2}7,7,
{4}1,1,1,,
{4}2,4,2h[4:1],,
{1}7h[2:1],
{1}5h[2:1],
{2}3h[4:1],3,
{4}2,3,2,3,
{1}3-6[2:1],
{1}7-2[2:1],
{1}3h[2:1],
{1}4h[2:1],
{1}8h[2:1],
{1}7h[2:1],
{1}6h[2:1],
{1}5h[2:1],
{1}4-1[2:1],
{4}8,8,8,,
{1}1b/8b,
E

ADVANCED

(183.0){1},
{1}7,
{1}8,
{2}1,2,
{4}1,2,3,,
{2}2h[4:1],1h[4:1],{1},
{2}2h[4:1],1h[4:1],{1},
{2}1h[4:1],2h[4:1],
{2}1h[4:1],2h[4:1],
{2}1h[4:1],3h[4:1],
{1}5-2[16:5],
{2}7,8,
{2}2,1,
{4}1,2,3,4,
{1}2-6[16:5],
{2}2,1,
{2}7,8,
{4}8,7,6,5,
{1}5-1[16:5],
{2}8,7,
{2}1,2,
{4}1,2,3,4,
{1}2-6[16:5],
{2}1,2,
{2}8,7,
{4}8,7,6,5,
{1}5-1[16:5],
{4},7,,5,
{4},4,,2,
{4},1,,8,
{4},6,5,4,
{4},2,,4,
{4},5,,7,
{4},8,,1,
{4},2,3,4,
{4},6,,8,
{4},1,,3,
{4},4,,5,
{4},6,7,8,
{4},3,,1,
{4},8,,6,
{4},5,,4,
{1}5-8[16:5],
{2}7/8,7/8,
{4}1,2,3,,
{2}1,2,
{4}2,1,8,,
{2}1/2,1/2,
{4}8,7,6,,
{2}6h[4:1],8h[4:1],
{1}1^4[16:5],
{2}7/8,3/4,
{2}5/6,1/2,
{4}3,4,5,6,
{2}7/8,7/8,
{2}1/2,5/6,
{2}3/4,7/8,
{4}6,5,4,3,
{1}1-5[16:5],
{2}5/6,1/2,
{2}7/8,3/4,
{4}1,2,3,4,
{1}2-6[16:5],
{2}3/4,7/8,
{2}5/6,1/2,
{4}3,4,5,6,
{1}8-4[16:5],
{2}1/2,5/6,
{4}4,3,2,,
{4}2,1,8,7,
{1}2-6[16:5],
{2}7/8,3/4,
{4}5,6,7,,
{4}8,7,1,2,
{2}1h[4:1]/2h[4:1],7h[4:1]/8h[4:1],
{2}1/2,7/8,
{4}8,1,2,,
{4}3,4,5,6,
{1}2-6[16:5],
{2}7/8,1/2,
{4}1,8,7,,
{1}1h[2:1]/2h[2:1],
{1}5h[2:1]/6h[2:1],
{1}2-7[16:5],
{1}6-3[16:5],
{1}2-6[16:5],
{1}7-3[16:5],
{1}4-8[16:5],
{1}5-1[16:5],
{1}1b/8b,
E

EXPERT

(183.0){1},,,
{2}2,3,
{4}2,3,4,,
{2}3h[4:1],3h[4:1],
{2}2-5[8:1],2-5[8:1],
{2}3h[4:1],3h[4:1],
{2}2-5[8:1],2-5[8:1],
{4}2-5[8:1],2,2-5[8:1],2,
{4}2-6[8:1],2,2-6[8:1],2,
{4}1-6[8:1],1b,1-6[8:1],1b,
{4}1,1,1h[4:1],,
{2}8h[2:1],2,
{4}1/7,2/8,1/7,8,
{4}8,1,1h[4:1],,
{2}1-6[8:1],1-6[8:1],
{2}8h[2:1],2h[2:1],
{4}3,5/6,3/4,8^3[4:1],
{4},4^7[4:1],,,
{4}1-5[8:1],1,1-5[8:1],1,
{2}3h[4:1]/7h[4:1],2h[4:1]/6h[4:1],
{4}3/5,4/6,3/5,4/6,
{2}1h[4:1],1h[4:1],
{2}1-6[8:1],1-6[8:1],
{2}3h[4:1]/8h[4:1],1h[4:1]/6h[4:1],
{4}5/7,4/6,3/5,7^4[4:1],
{4},2^5[4:1],,7^2[2:1],
{4},,,2b/7b,
{4}7/8h[4:1],6,2/1h[4:1],3,
{1}8/7^2[4:1],
{4}3/4h[4:1],2,6/5h[4:1],7,
{4}3/4h[4:1],2,6/5h[4:1],7,
{4}1/2,2,7/8,7,
{4}5/6,6,3/4,3,
{4}2h[4:1],3h[4:1],{2}4^7[4:1],{1},
{4}1/2,1/2,7/8,7/8,
{4}1/2,1/2,7/8,7/8,
{4}1/2,8,6/7,5-2[4:1],
{4},,,2,
{4}1h[4:3],8,7,6,
{4}8h[4:3],1,2,3,
{4}4h[4:1],3h[4:1],2h[4:1],1,
{1}7-4[4:1]/8-3[4:1],
{2}1-6[8:1],1-6[8:1],
{4}1-5[8:1],1,1-5[8:1],1,
{2}3h[4:1],3h[4:1],
{8}1/2,,7,8,7h[4:1],,8,,
{2}1-6[8:1],1-6[8:1],
{4}1-5[8:1],1,1-5[8:1],1,
{4}6h[4:1],7h[4:1],8h[4:1],1,
{16}1/8,,,2/7,,,3/6,,4/5,,,,2b/7b,,,,
{4}1h[2:1],8,7h[4:1],6^3[4:1],
{4},,1/2,7/8,
{4}6,1/2,3,7/8,
{4}1-6[8:1],1,1-6[8:1],1,
{4}8h[2:1],1,2h[4:1],3^6[4:1],
{4},,7/8,1-5[4:1],
{4},8-4[4:1],,,
{4}1-5[8:1],1,1-5[8:1],1,
{2}3h[4:1]/7h[4:1],1h[4:1]/5h[4:1],
{4}3/7,2/6,3/7,8h[4:1],
{4}7,1/2,3,4/6,
{4}1-6[8:1],1,1-6[8:1],1,
{4}7h[4:3],6,5,4,
{4}3^6[4:1],,,7/8,
{4}6,1/2,3,7/8,
{2}1h[4:1],1b,
{4}7/8h[4:1],6,2/1h[4:1],3,
{8}3^8[4:1]/8^5[4:1],,,,,,7,8,
{8}7,,2,1,2,,1/8,,
{4}1-6[8:1],1b,1-6[8:1],1b,
{4}7h[4:1],6,2h[4:1],3,
{8}1^4[4:1]/6^1[4:1],,,,,,3,4,
{8}3,,6,5,6,,2/7,,
{4}1-5[8:1],1b,1-5[8:1],1b,
{4}7/8,7,1/2,2,
{4}3/4,4/5,5/6,2^5[4:1],
{4},7^4[4:1],,,
{4}1-6[8:1],1b,1-6[8:1],1b,
{4}7h[4:1],6h[4:1],5h[4:1],4h[4:1],
{4}3^6[4:1],,,7^2[2:1],
{4},,,3^6[2:1],{1},
{4}8/1h[4:7],8,7,7,
{4}6,6,5,5,
{4}3/4h[4:7],3,2,2,
{4}1,1,8,8,
{1}1h[4:3]/8h[4:3],
{16}1,8,1,8,1,8,1,8,1,,,,,,,,
{1}2b/7b,
E

MASTER

(183){8}
2,,2,,2^5[8:1],,,,
2,,4,4,6,,48,,
7,,5,5,3,,51,,
2,,4,4,6,,48,,
26,,48,,26,,4,,

{2}
2^5[8:1],2^5[8:1],
1-6[8:1]/2-5[8:1],1-6[8:1]/2-5[8:1],
2^5[8:1],2^5[8:1],
1-6[8:1]/2-5[8:1],1-6[8:1]/2-5[8:1],
2^5[8:1],1-6[8:1]/2-5[8:1],
2^5[8:1],1-6[8:1]/2-5[8:1],
1^6[8:1]/2^5[8:1],1-6[8:1]/2-5[8:1],
{16}12,,,18,,,78,,{4}1^6[8:1]/2^5[8:1],,

2h[4:1]/3,,7h[4:1]/6,,
25,7h[4:1]/4,1-5[8:1],,
1,1,1,1,
2^5[8:1],2,2^5[8:1],2,
7h[4:1]/1,6,3h[4:1]/5,2,
25,2^5[4:1]/5-2[4:1],,,
16,1^6[4:1]/6-1[4:1],,,
{16}12,,,18,,,78,,{4}1^6[8:1]/2^5[8:1],,

8h[4:1]/6,2,1h[4:1]/3,7,
{8}68,2,13,7,6,,8,,
1,,1,8,1,2,1,7,
{4}2^5[8:1],2,2^5[8:1],2,
1h[4:1]/4,4,5h[4:1]/8,8,
7-3[8:1],1-5[8:1],8-4[8:1],2^5[8:1],
,1^6[8:1],,8-3[2:1]/7-4[2:1],
,,,,

2^5[8:1],,2^5[8:1],,
{8}6,7,8,1^6[8:1],{4},,
8h[4:1],1h[4:1],2h[4:1],3h[4:1],
1h[4:1],8h[4:1],7h[4:1],6h[4:1],
1-5[8:1],4,8-4[8:1],5,
2-6[8:1],3,7-3[8:1],6,
4-7[8:1],4,5-2[8:1],5,
3-8[8:1],3,6-1[8:1],6,
28,17,28,17,
34,56,34,56,
13,24,13,24,
68,57,68,57,
14,67,58,67,
58,23,14,23,
1-5[8:1],8-4[8:1],3,6,
4^1[4:1]/5^8[4:1],,,,

1-6[8:1]/2-5[8:1],,1-6[8:1]/2-5[8:1],,
78,34,1-6[8:1]/2-5[8:1],,
2^5[8:1],,2^5[8:1],,
1^6[8:1],,2^5[8:1],,
1-6[8:1]/2-5[8:1],,1-6[8:1]/2-5[8:1],,
78,34,1-6[8:1]/2-5[8:1],,
67,45,23,18,
{16}34,,,56,,,78,,1-6[8:1]/2-5[8:1],,,,,,,,

{8}
4h[4:1]/8h[4:1],,,,1h[4:1]/5h[4:1],,,,
26,4,8,4,2b/6b,,3,1,
7h[4:1],,6,8,2h[4:1],,6,,
2^5[8:1],,2,,2^5[8:1],,2,,
2h[4:1]/3h[4:1],,,,6h[4:1]/7h[4:1],,,,
48,2,6,2,48,,6,4,
2,,2,4,6,8,2,4,
{16}78,,,23,,,56,,{4}1-6[8:1]/2-5[8:1],,
1-5[8:1],4,8-4[8:1],5,
1-5[8:1],8-4[8:1],1-5[8:1],8-4[8:1],
{8}1,,1,8,1,2,1,7,
{4}2^5[8:1],2,2^5[8:1],2,
2h[8:3],{16},,3,4,{8}5h[4:1],,,,
2h[4:1],,3,4,5,,2^5[8:1],,
,,2,2,2^5[8:1],,,,
8-3[4:1]/7-4[4:1],,,,,,,,

4h[4:1]/8h[4:1],,,,1h[4:1]/5h[4:1],,,,
26,4,8,4,26,,3,1,
7h[4:1],,6,8,2h[4:1],,6,,
2^5[8:1],,2b,,2^5[8:1],,2b,,
2h[4:1]/3h[4:1],,,,6h[4:1]/7h[4:1],,,,
48,2,6,2,48,,6,4,
2,,2,4,6,8,2,4,
{16}78,,,23,,,56,,{4}1-6[8:1]/2-5[8:1],,
1-5[8:1],4,8-4[8:1],5,
1-5[8:1],8-4[8:1],1-5[8:1],8-4[8:1],
{8}1,,1,8,1,2,1,7,
{4}2^5[8:1],2b,2^5[8:1],2b,
2h[8:3],{16},,3,4,{8}5h[4:1],,,,
2h[4:1],,3,4,5,,2^5[2:1],,
,,,,,,2,2,
{1}2^5[4:19],
,
,
,
,
,
{16}2,1,8,7,6,5,4,3,{4}2^5[4:1],,
{1},
,,,,
E

名前:
コメント:

タグ:

+ タグ編集
  • タグ:

このサイトはreCAPTCHAによって保護されており、Googleの プライバシーポリシー利用規約 が適用されます。

最終更新:2022年07月15日 15:46