カゲロウデイズ

BPM EASY BASIC ADVANCED EXPERT MASTER Re:MASTER
200 2 4 6 10 12+ 13+

EXPERT MASTER Re:MASTER
譜面制作者 はっぴー ニャイン はっぴー

EASY

(200){1},,,,,,,,
7,,8,,1,,2,,1,1,2,2,3,,4,,5,5,6,6,7,,8,{2}8,8b,
{1}8,,7h[1:1],,6,,7h[1:1],,8-5[4:3],,6h[1:1],,7-2[4:3],,
{2}1,1,1,1b,8,,7,,6,,5,5,4,,3,,2,,1,1,{1}1,2,1,8,7,8,1,8,
1,,3,,5,,7,,8,7,6,5,4,3,4,3,2,1,8,7,8,1,8,{2}1,
{1}1/8,,,,E


BASIC

(200){1},{4},5,,{2}5,,,4,4,,,5,5,,,{4}4,4,,,
3,,3,,4,,4,,5,,5,,6,6,,,6,,6,,5,,5,,4,,4,,3,3b,,
{1}2h[2:1],1,8h[2:1],7,6h[2:1],5,4h[2:1],3,
3/4,1/2,7/8,5/6,4h[1:1]/5h[1:1],,{2}3,2,1,8b,
{1}7h[1:1],,8h[1:1],,1h[1:1],,2h[1:1],,1-4[4:3],,8-5[4:3],,1-5[4:3],,
{2}4,3,2,1b/8b,1,2,8,7,6,5,4,4/5,
{4}2,2,2,,7,7,7,,1,,1,,8,8,8b,,
{2}1,1,1/2,1/2,8,8,7/8,7/8,
{4}2,2,1,,8,8,7,,6,6,5,,4,5,4,4b/5b,,
{2}6,6,5,5,4,4,{4}3,3,{2},3,3,4,4,5,5,{4}6,6b,,
{1}7,8,1,2,2-7[4:3],,6-3[4:3],,3/4,1/2,7/8,5/6,4h[1:1]/5h[1:1],,
{4}6,,7,,8,8,{1}1b/8b,,,,E


ADVANCED

(200){2}
1,2,3h[4:3],,1,8,7h[4:3],,8,1,2h[4:3],,1,8,{4}7,7,7b,,
{1}6-2[2:1],,1-5[2:1],,4-8[2:1],,7-3[2:1],,{4}
2h[4:3],,,1,1h[4:3],,,8,8h[4:3],,,7,7h[4:3],,,{1}6-2[2:1],,4-8[2:1],,{4},
7h[4:3],,,8,8h[4:3],,,1,1h[4:3],,,2,2h[4:3],,,3-7[2:1],{1},,{4}5,,3,,1,1,1,
{1}8-5[2:1],,4-1[2:1],,{4},8,,2,,4,,6h[2:1],,8,{8},8b,{2},{1},
1h[8:3],2h[8:3],3h[8:3],4h[8:3],
{2}5,4,3,2,1h[1:1],,{4}8,8,1b/8b,,
8,8,7,7,6,6,5,,4h[4:3],,,,3/4,3/4,2/3,,
{1}4h[1:1],5h[1:1],6h[1:1],7h[4:3],
{4}8,8,7,7,6,6,5,,3,3,5,5,7/8,7/8,7/8,,
{1}7^4[2:1],1^4[2:1],7h[2:1],{4}8h[2:1],,1,1/8,
{1}2-6[2:1],,5-1[2:1],,8-4[2:1],,3-7[2:1],,
{4}8h[4:3],,,1,1h[4:3],,,2,2h[4:3],,,3,3h[4:3],,,{1}4-8[2:1],,7-3[2:1],,
{4},2h[4:3],,,1,1h[4:3],,,8,8h[4:3],,,7,7h[4:3],,,
{1}6-2[2:1],,{4},1,,8,,1/8,1/8,
{1}1/8,,,,E


EXPERT

(200)
{4}
1h[2:1],,3h[2:1],,2h[2:1],4,4,,
8h[2:1],,6h[2:1],,7h[2:1],5,5,,
3h[2:1],,1h[2:1],,2h[2:1],4,4,,
6h[2:1],,8h[2:1],,7h[4:1],5-1[4:1],,,
{8}
68,,7,,3,4,3,,
13,,2,,6,5,6,,
75,,6,,2,1,2,,
24,,3,,7,8,7,,
6/8h[4:1],,7,,3,4,3,,
1h[4:1]/3,,2,,3,4,3,,
5h[4:1]/7,,6,,2,1,2,,
2/4h[4:1],,3,,6b/8b,,,,
65,,7,7,56,,4,,
43,,2,2,43,,5,,
67,,8,8,67,,5,,
32,,1,1,23,,4,,
46,,5,5,46,,8,,
53,,4,4,35,,1,,
86,,7,7,68,,4,,
13,,2,2,13,,5,,
4h[4:1],,3,3,6h[4:1],,8,,
5h[4:1],,6,6,3h[4:1],,1,,
2h[4:1],,3,3,1h[4:1],,2,,
7h[4:1],,6,6,8h[4:1],,7,,
7h[4:1],,8,8,56,,43,,
2h[4:1],,1,1,43,,56,,
5h[4:1],,4,4,56,,34,,
12,,78,,56,,1^6[2:1],,
{4}
2h[1:1],,,,
4h[4:1],5h[4:1],4,8^3[2:1],
7h[1:1],,,,
5h[4:1],3h[4:1],1h[4:1],7h[4:1],
8,2h[4:1],4h[4:1],6h[4:1],
8,1h[4:1],4h[4:1],5h[4:1],
8-4[2:1],1h[4:3],,,
,,,,
1h[4:3],8,7,6,
8h[4:3],1,2,3,
1h[4:3],7,6,5,
8h[4:3],2,3,4,
2h[4:3],7,8,1,
7h[4:3],2,1,8,
{8}
42,3,,75,6,,18,18,
2-7[8:1],,8-5[8:1],,2b,,,,
8h[8:3],,,5,5,,2h[4:1],,3,,7h[4:1],,6,,
1,2,3,,8,7,6,,3h[4:1],,7h[4:1],,5-1[8:1],,,,,,
27,,8,1,8,,72,,25,,3,4,3,,25,,
47,,6,5,6,,74,,1-6[8:1],,,,5-2[8:1],,,,
1h[8:3],,,4,4,,7h[4:1],,6,,2h[4:1],,3,,
5,6,7,,4,3,2,,6h[4:1],,2h[4:1],,4-8[8:1],,,,,,
15,,2,4,2,,37,,48,,7,5,7,,26,,
1-5[8:1],,,,7-3[8:1],,,,1b/5b,,2-7[4:1]/6-3[4:1],,,,,,
2,,1,1,6,,56,,7,,8,8,3,,34,,
2,,1,1,6,,56,,7,,8,8,3,,43,,
5,,6,6,1,,12,,4,,3,3,8,,78,,
5,,6,6,1,,12,,86,,13,,45,,,,
{4}
,2h[4:1],3h[4:1],4h[4:1],5h[2:1],6,4h[2:1],3,
5h[2:1],,6h[2:1],,7h[2:5],,8,1-4[2:1],
,,,,,,2h[4:9],8-5[2:1],
,,,,,,3,3,
,7h[4:1],6h[4:1],5h[4:1],4h[2:1],3,5h[2:1],6,
4h[2:1],,3h[2:1],,2h[4:13],,1,8-5[2:1],
,,,1-4[2:1],,,,,
,6h[4:1],8h[4:1],1h[4:1],6,83,45,,
{1}
,
E

MASTER

(200){8}
1h[8:3],,,5,2h[8:3],,,7,
3h[4:3],,,,,,,,
6h[8:3],,,3,4h[8:3],,,2,
1h[4:3],,,,,,,,
2h[8:3],,,4,3h[8:3],,,5,
4h[4:3],,,,,,,,
8h[8:3],,,6,7h[8:3],,,8,
18,,12,,18,,,,
7h[4:1],,6,5,4h[4:1],,2,,
3h[4:1],,4,5,6h[4:1],,8,,
7h[4:1],,5,5,3h[4:1],,2,,
2h[4:1],,4,4,6h[4:1],,7,,
2h[4:1],,3,4,5h[4:1],,7,,
6h[4:1],,5,4,3h[4:1],,1,,
2h[4:1],,4,4,6h[4:1],,7,,
37,,15,,48,,2b/6b,,

4^7[8:1]/8,,1,2,3,4,5,,
8-4[8:1],,2,2,4-8[8:1],,,,
7h[8:3],,,5,4h[8:3],,,2,
1h[8:3],,,2,3,4,5,6,
7h[4:1],,8,,18,,2,3,
2,1,8,7,6,5,4,,
2h[4:1],,1,,78,,6,6,
4,5,4,6,7,,,,
8^5[8:1],,8h[4:1],,4h[4:1],,2,,
1-5[8:1],,3,3,5-1[8:1],,,,
2h[8:3],,,4,5h[8:3],,,7,
8h[8:3],,,7,6,5,4,3,
2h[4:1],,1,,18,,2,3,
2,1,8,7,6,5,4,,
12,,4,5,67,,4,3,
12,,78,,56,,4-8[4:7],,

7,,7,,1,,1,,
6,,6,,2,,2-6[4:7],,
1,,1,,3,,3,,
8,,8,,4,,4,,
6h[2:1],,4,,2h[4:1],,1,8,
7h[4:1],,1,2,3h[4:1],,4,5,
6,4,2,8h[8:11],,,,,
,,,,,,,,
1h[8:3],,,2h[8:5],,,,,
1h[8:3],,,7h[8:3],,,5,,
4h[8:3],,,2h[8:3],,,8,,
8h[8:3],,,2h[8:3],,,4,,
2,,2,,1,,1,,
8,,8,,7,,7,,
18,18,,24,24,,57,57,
,24,24,,1b/8b,,,,

12,,24,,12,,17,,
2,3,4,5,6h[4:1],,,,
35,,13,2,13,,35,,
7,5,3,1,7h[4:1],,,,
1-5[8:1],,1,8,7,6,5,4,
3-7[8:1],,7,8,1,2,3,4,
5-1[8:1],,1,8,7,6,5,4,
1b/3b,,6b/8b,,3b/5b,,2b/8b,,
1^4[8:1]/7,,8,1,2^7[8:1]/4,,3,2,
8^3[8:1]/6,,7,8,1^6[8:1]/3,,2,1,
8-3[8:1],,6,5,4-7[8:1],,,,
1-6[8:1],,3,4,5-2[8:1],,,,
3h[4:1],,4,5,6,7,8,1,
1h[4:1],,8,7,6,5,4,3,
2-6[8:1],,3-7[8:1],,4-8[8:1],,,,
8,6,4,2,18,,7b/8b,,

8-4[8:1],,2,2,4-7[8:1],,,,
7-3[8:1],,4,4,3-8[8:1],,,,
1-6[8:1],,7,7,6-2[8:1],,,,
2-5[8:1],,6,6,5-1[8:1],,,,
8h[4:1],,7,7,6h[4:1],,7,8,
7,5,6,4,5,3,4,2,
1h[4:1],,2,2,3h[4:1],,2,1,
2,3,4,5,6h[4:1],,8b,,

1h[2:1],,2,2,2,,18,,
8h[2:1],,7,7,7,,18,,
2h[2:1],,3,3,3,,18,,
7h[2:1],,6,6,6,,18,,
1h[4:1],,2,,18,,7,6,
7,8,1,2,3,4,5,,
7h[4:1],,8,,12,,3,3,
5,4,5,3,2,,,,
8h[2:1],,7,7,7,,18,,
1h[2:1],,2,2,2,,18,,
7h[2:1],,6,6,6,,18,,
2h[2:1],,3,3,3,,18,,
8h[4:1],,7,,18,,2,3,
2,1,8,7,6,5,4,,
2h[4:1],,1,,78,,6,6,
1b/5b,,2b/6b,,3b/7b,,,,

{1},
E


Re:MASTER

(200){8}
6,7<5[16:1],,4,3,2>4[16:1],,6,6,,6,5,7-5[16:1],6,7,,
3,2>4[16:1],,5,6,7<5[16:1],,3,3,,3,4,2-4[16:1],3,2,,
6,7<5[16:1],,4,3,2>4[16:1],,6,6,,6,5,7-5[16:1],6,7,,
3,2>4[16:1],,5,6,7<5[16:1],,3,3-6[16:1],,7-2[16:1],,1b,,,,
2<7[16:1]/4,,5,5,6>3[16:1],,1-4[16:1],1,5-8[16:1],5,2-7[16:1],2,6-3[16:1],6,1,,
7>2[16:1]/5,,4,4,3<6[16:1],,8-5[16:1],8,4-1[16:1],4,7-2[16:1],7,3-6[16:1],3,8,,
2<7[16:1]/4,,5,5,6>3[16:1],,1-4[16:1],1,5-8[16:1],5,2-7[16:1],2,6-3[16:1],6,1,,
7>2[16:1]/5,,4,4,3<6[16:1],,8-5[16:1],8,4-1[16:1],4,6-3[16:1],6,8,,2-5[16:1]/7,,

2/8b,,6,6,2-4[16:1]/5,,2-5[16:1]/8,,
2/8,,6,6,2-4[16:1]/5,,2-5[16:1]/7,,
2/8,,6,6,2-4[16:1]/5,,2-5[16:1]/7,,
2/8,,6,6,2-4[16:1]/5,,2-5[16:1]/6-8[16:1],,
2/6,,6,6,2-4[16:1]/5,,2-5[16:1]/7h[8:1],,
2/7,,6,6,2-4[16:1]/5,,2-5[16:1]/8h[8:1],,
2/8,,6,6,2-4[16:1]/5,,2-5[16:1]/8-5[16:1],,
2/8,,2-6[16:1]/6,6,2-4[16:1]/5,,7-5[16:1]/2,,
1/7,,3,3,7-5[16:1]/4,,7-4[16:1]/1,,
1/7,,3,3,7-5[16:1]/4,,7-4[16:1]/2h[8:1],,
2/7,,3,3,7-5[16:1]/4,,7-4[16:1]/4,,
1/7,,3,3,7-5[16:1]/4,,7-4[16:1]/1,,
3/7,,3,3,7-5[16:1]/4,,7-4[16:1]/1h[8:1],,
1/7,,3,3,7-5[16:1]/4,,7-4[16:1]/3>1[16:1],,
3/7,,3,3,4/6,,5<8[16:1]/4,,
4>1[16:1],,5,,8b,,4/5,,

4>1[4:3]/5,5,5,5,5,5,5,5,5,5,5,5,{16}5,4,5,4,{8}5,5,
4>1[4:3]/5,5,5,5,5,5,5,5,5,5,5,5,5,{16}5,4,5,4,{8}5,
4>1[4:3]/5,5,5,5,5,5,5,5,5,5,5,5,4/5,{16}5,4,{8}5,5,
4>1[4:3]/5,5,5,5,5,5,5,5,5,5,5,5,5,5,4/5,,4/7,
{16}
5,,5,6,5,6,5,6,5,,5,,5,,5,,5,6,5,6,5,,5,6,5,,5,6,5,,5,,
5,,5,6,5,6,5,6,5,,5,,5,,5,,5,6,5,6,5,,5,6,5,,5,6,5,,5,,
5,,5,6,5,6,5,6,5,,5,,5,,5,6,5,6,5,6,5,,5,6,5,,5,6,5,,
{8}
4/7,4/7,,2/5,2/5,,4/5,4/5,4/5,{16}6,7,8,1,2,3,{4}4b/5b,6-3[16:1]/7-2[16:1],
6/7,6-2[16:1]/7-3[16:1],6/7,6z2[16:1]/7p3[16:1],6/7,6s2[16:1]/7s3[16:1],6/7,
{8}8,7,
6<8[16:1]/1,,4,3,2>4[16:1]/5,,8h[4:1],,
1,2/3,4/5,6/7,{4}8/1,5-1[16:1]/7,8-4[16:1]/5,2-6[16:1]/8,2/7,
{8}
4-8[16:1]/2,2,1-5[16:1]/2,,7-3[16:1]/1,,2/7,,
7^2[16:1]/5,5,4-8[16:1]/7,,6^3[16:1]/4,,1/6,,
2^7[16:1]/4,4,5-1[16:1]/2,,3^6[16:1]/5,,3/8,8,8bw4[16:1],,
{4}
8,1w5[16:1],1,1-4[16:1]/8-5[16:1],
{8}
1/8,,1/8,1/8,7b-4[16:1]/2b,,3-8[16:1],,
6-1[16:1],,2-5[16:1],,7-3[16:1],,2,,
1/8,1/8,2v7[16:1]/7v2[16:1],,2/7,,4/5,,
4-1[16:1]/5,,5,5,4-1[16:1],8,7,6,
5-8[16:1]/4,,4,4,5-8[16:1],1,2,3,
4-1[16:1]/5,,5,5,4,6,4/5,,
1/8,2/7,3-6[16:1]/6-3[16:1],,,,2b/7b,,

2^7[16:1]/4,,5,5,6^3[16:1],,2-6[16:1],2,7-3[16:1],7,1-5[16:1],1,8-4[16:1],8,2,3,
7^2[16:1]/5,,4,4,3^6[16:1],,7-3[16:1],7,2-6[16:1],2,8-4[16:1],8,1-5[16:1],1,7,6,
2^7[16:1]/4,,5,5,6^3[16:1],,2-6[16:1],2,7-3[16:1],7,1-5[16:1],1,8-4[16:1],8,2,3,
7^2[16:1]/5,,4,4,3^6[16:1],,7-3[16:1],7,2-6[16:1],2,8-4[16:1],8,1,,1-4[16:1]/5,,

1/8,,6,6,1-3[16:1]/5,,1-5[16:1]/8,,
1/8,,6,6,1-3[16:1]/5,,1-5[16:1]/7,,
1/8,,6,6,1-3[16:1]/5,,1-5[16:1]/7,,
1/8,,6,6,1-3[16:1]/5,,1-5[16:1]/5-8[16:1],,
1/5,,6,6,1-3[16:1]/5,,1-5[16:1]/7h[8:1],,
1/7,,6,6,1-3[16:1]/5,,1-5[16:1]/8h[8:1],,
1/8,,6,6,1-3[16:1]/5,,1-5[16:1]/8-4[16:1],,
1/8,,1-3[16:1]/6,6,1-5[16:1]/5,,8-6[16:1]/1,,

1/8,,3,3,8-6[16:1]/4,,8-4[16:1]/1,,
1/8,,3,3,8-6[16:1]/4,,8-4[16:1]/2h[8:1],,
2/8,,3,3,8-6[16:1]/4,,3-8[16:1]/8-4[16:1],,
3/8,,3,3,8-6[16:1]/4,,8-4[16:1]/2,,
1/8,,3,3,6,5,7,3,
4,2,6,5,8,3,4,1,
7,5,8,2,4,1,7,6,8,,
{1}8bv1[16:1]*v5[16:1],,,,E


  • 暫定的ですが、Re:MASTER補完しました。修正箇所等あれば手直しお願いします。 -- Sea (2018-06-05 11:15:01)
  • ReMAS微修正しました。 -- Sea (2018-06-05 11:15:01)
  • エラー吐いてたのでなおしました。後、勝手ながらスライドを[8:1]を[16:1]にしましたが違うと思われた方は直して下さい… -- won-data (2020-06-04 21:02:38)
名前:
コメント:

タグ:

+ タグ編集
  • タグ:

このサイトはreCAPTCHAによって保護されており、Googleの プライバシーポリシー利用規約 が適用されます。

最終更新:2021年04月22日 22:15