Crush On You

BPM EASY BASIC ADVANCED EXPERT MASTER Re:MASTER
125 2 4 6 8 10 12+

EXPERT MASTER Re:MASTER
譜面制作者 譜面-100号 ニャイン Jack

EASY


BASIC


ADVANCED


EXPERT


MASTER

(125){1},{4}
1h[4:3],6,,6,
2h[4:1],3,7h[4:1],6,
1h[4:3],6,,6,
8,3-8[4:1]/4,,2b,
1h[4:3],5,5,5,
3h[4:1],7,6h[4:1],2,
{8}1h[4:1]/7,,8,7,8h[4:1]/2,,1,2,
8,7,1-5[4:1],2,4-8[4:1],,,,

,1,2,3,4,5,6,7h[1:1],
,8,,1,,2,,3,
,8,7,6,5,4,3,2h[8:5],
,1,,1-5[8:1],,3-7[8:1],,,
,1,2,3,4,5,6,7h[1:1],
,8,,1,,2,,3,
,8,7,6,5,4,3,2,
5,5,1,1,7,7,3h[4:1],,

7,,5,,1,,3,,
8,{16}7,8,{8},1h[4:1],,,2,3,
1,8,7,6,5h[4:1],,1,2,
18,,26,,,48,26,,
2,,4,,8,,6,,
1,{16}2,1,{8},8h[4:1],,,7,6,
8,1,2,3,4h[4:1],,8,7,
81,,73,,,51,7b/3b,,

{16}
8,8,,7,,6,,7h[16:5],,,,,,,,,
4,7,,3,8,,2-5[4:1],1-6[4:1],,,,,,,,,
1,1,,2,,3,,2h[16:5],,,1,,,,,,
5,2,,16,,,8-3[4:1]/7-4[4:1],,,,,,,,,,
1,1,,2b,,,8,8,,7b,,,1,8,1,8b,
{4},,,2,
,2,,2h[4:1],
{16}3h[8:1],,4h[16:3],,,5h[16:3],,,6h[16:3],,,7h[16:3],,,8h[8:1],,
{2}1h[4:3],,

7^4[8:1],2^5[8:1],
5^2[8:1],4^7[8:1],
6^3[8:1],{4}2-5[8:1],6-1[8:1],
8-3[8:1],4-7[8:1],1-4[8:1],,
67,{8}1,23,,2,{4}18,
4^7[8:1],,5^2[8:1],,
2-7[8:1],6-3[8:1],,4-1[2:1]/5-8[2:1],
,,{16},,46,,,35,,,
{4}56,78,12,2-7[4:3]/3-6[4:3],
,,,,

{16}5,6,7,8,{4}1h[2:3],,,
8-3[8:1],,4-7[8:1],,
1h[4:3],7,,8-5[8:1],
7-2[8:1],3-6[8:1],4-1[8:1],,
8-3[2:1],,1-6[2:1],,
7-4[2:1],,2-5[2:1],,
{16}8h[4:1],,,,,8,8,,1h[4:1],,,,,1,1,,
{8}8,7,6^1[8:1],5,2^5[8:1],,,,

{1},
E

Re:MASTER

(125){4}
1-3[16:1]/5-7[16:1],1v4[8:1]/5v8[8:1],,2^7[16:11]/6^3[16:11],
26,,,1-3[8:1]/8-4[8:1],
1-5[8:1]/8-6[8:1],1-4[8:1]/8-3[8:1],1-6[8:1]/8-5[8:1],18,
3>6[8:5],36,,3>6[8:1],
,,1-4[8:1]/8-5[8:1],,
3/6<3[2:1],4,5,6,
7-3[8:1],7/8-4[8:1],1-5[8:1]/8,{16}1/2-6[8:1],,2,,
2h[4:1],,,,7-3[8:1],,8,8,{4}7h[4:1],4^7[8:1],
4/8^3[8:1],5^8[8:1]/8,1>8[4:1]/5,,

{16}
5h[8:1],,1h[256:1],,2h[256:1]/5h[8:1],,3h[256:1],,4h[256:1]/5h[8:1],,6h[256:1],,5h[8:1]/7h[256:1],,8h[256:1],,
1h[8:1]/5h[256:1],,5h[256:1],,2h[8:1],6h[256:1],,6h[256:1],3h[8:1],,7h[256:1],,4h[8:1],8h[256:1],,8h[256:1],
4h[8:1],,8h[256:1],,4h[8:1]/7h[256:1],,6h[256:1],,4h[8:1]/5h[256:1],,3h[256:1],,2h[256:1]/4h[8:1],,1h[256:1],,
4h[256:1]/8h[8:1],,3h[256:1],,7h[8:1],2h[256:1],,2h[256:1],6h[8:1],,1^4[16:1],,5^8[16:1],,1b,,
5h[256:1],,4h[256:1],,3h[256:1]/8h[8:1],,2h[256:1],,1h[256:1]/8h[8:1],,7h[256:1],,6h[256:1]/8h[8:1],,5h[256:1],,
4h[8:1]/8h[256:1],,8h[256:1],,4h[8:1],7h[256:1],,7h[256:1],3h[8:1],,6h[256:1],,2h[8:1],5h[256:1],,5h[256:1],
1h[8:1],,5h[256:1],,1h[8:1]/6h[256:1],,7h[256:1],,1h[8:1]/8h[256:1],,2h[256:1],,1h[8:1]/3h[256:1],,4h[256:1],,
5^8[16:1]/1h[256:1],,6h[256:1],,1^4[16:1]/5h[256:1],,2h[256:1],,1h[256:1]/5-1[8:1],,6h[256:1],,,,,,

2h[8:3],,3,,4,,5,2,5,2,,3,4,,6,5,
47,,6,5,,3,4,2,,2,,5,4,,8,1,
7h[8:3],,6,,5,,4,7,4,7,,6,5,,1/8-4[16:1],,
37,,1-5[16:1]/8,,26,,18,,,,78,,12,,,,
7h[8:3],,6,,5,,4,7,4,7,,6,5,,3,4,
25,,3,4,,6,5,7,,7,,4,5,,1,8,
2h[8:3],,3,,4,,5,2,5,2,,3,4,,1-5[16:1]/8,,
26,,1/8-4[16:1],,37,,18,,,,12,,7/8^3[16:15],,,,

48,,,,5h[16:3],,,,5,,6,,7,,,,
48,15,,15,48,,48,15,,,,,1^6[16:15]/2,,,,
15,,,,4h[16:3],,,,4,,3,,2,,,,
15,48,,4h[8:1]/8h[8:1],,,4q2[4:1]/8q6[4:1],,,,,,,,,,
1-5[16:1],,,,1,,1-5[16:1],,,,1,,1-5[8:1],,5pp1[8:3]*qq1[8:3],,
,,,,,,,,,,28,,37,,46,,
35,,26,,17,,8,1,8,1,27,,34,,56,,
1,5,1,5,5,1,5,5,1,5,5,1,5,5,1,5,
{1}1b,

{16}
1-4[16:1]/8,,,,1-6[16:1]/8,,,7,1^4[16:1],7,,,1-5[16:1]/6,,7,,
1-4[16:1]/8,,,,1-6[16:1]/8,,,7,1^4[16:1],7,,,1-5[16:1]/6,,7,,
1-4[16:1]/8,,,,1-6[16:1]/8,,,7,1^4[16:1],,5,,1-5[16:1]/6,,7,,
1-4[16:1]/8,,8,8,1-6[16:1],8,8,,1>7[16:3],,8,,18,,,,
1bw5[16:1],,,,1,,2/8bw4[16:1],,,,8,,1b/7,,,,
8-5[16:1]/1,,,,8-3[16:1]/1,,,2,8^5[16:1],2,,,8-4[16:1]/3,,2,,
8-5[16:1]/1,,,,8-3[16:1]/1,,,2,8^5[16:1],,4,,8-4[16:1]/3,,2,,
8-5[16:1]/1,,1,1,8-3[16:1],1,1,,8,,1bw5[16:1],,,1b,,,
{8}2^5[8:1]/8^5[8:1],,28,,5,46,37,28,
{1}1,

{16}1b>1[2:1]/8b<8[2:1],2b>2[2:1]/7b<7[2:1],3b<3[2:1]/6b>6[2:1],4b<4[2:1]/5b>5[2:1],{4},,,
1-3[8:1]/8-4[8:1],1-5[8:1]/8-6[8:1],1-3[8:1]/8-4[8:1],18,
6<3[8:5],36,,6<3[8:1],
,,4-1[8:1]/8-5[8:1],4>5[16:7],
,,1v7[8:1]/5v3[8:1],5<4[16:7],
,,4v7[8:1]/8v1[8:1],8w4[8:1],
{16}8,,,,1-5[8:1]/8-4[8:1],36,36,,18,,,,4-8[16:1]/5-1[16:1],27,27,,
{4}4-2[16:1]/5-7[16:1],4-8[8:1]/5-1[8:3],45,8b,
,,,,
E


名前:
コメント:

タグ:

+ タグ編集
  • タグ:

このサイトはreCAPTCHAによって保護されており、Googleの プライバシーポリシー利用規約 が適用されます。

最終更新:2018年08月22日 01:19