Beat of getting entangled

BPM EASY BASIC ADVANCED EXPERT MASTER Re:MASTER
140 3 5 8 11+ 13+ 14

EASY


BASIC


ADVANCED


EXPERT


MASTER

(140){4}
,,,4-8[8:1],
{16}
3h[16:3],,,7h[16:3],,,4h[16:3],,,6h[16:3],,,5-1[8:1],,,,
2h[16:3],,,6h[16:3],,,3h[16:3],,,5h[16:3],,,4-8[8:1],,,,
1h[16:3],,,7h[16:3],,,5h[16:3],,,3h[16:3],,,1-4[8:1],,,,
3h[16:3],,,5h[16:3],,,7h[16:3],,,1h[16:3],,,3-7[8:1],,,,
6,6,,4,4,,2,2,,8,8,,2,2,4,4,
5,6,,6,5,,5,4,,4,3,,2,1,2,1,
2,3,,3,4,,4,5,,5,6,,7,8,7,8,
7,7,,5,5,,3,3,,1,1,,8b,7,1b,8,
{1},

{16}
2h[4:1],,3,,5,,6,57,,35,,2,18,,,,
3,,45,,6,,3,12,,18,,78,,,6,,
5h[4:1],,4,,2,,1,28,,24,,5,67,,,,
4,,23,,1,,4,56,,67,,78,,,1,,
2h[4:1],,3,,5,,6,57,,35,,2,18,,,,
3,,45,,6,,3,12,,18,,78,,,6,,
5h[4:1],,4,,2,,1,28,,24,,5,67,,,,
2h[16:3],,,8h[16:3],,,6h[8:5],,,,,,,,,,

8-4[8:1],,,,,,3,35,,12,,8,7-3[8:1]/8,,6,,
4,,2,,8,4,,56,,68,,18,,,2,,
3-7[8:1],,,,,,8,68,,18,,2,2-6[8:1]/3,,4,,
{12}7,7,7,8h[4:1],,,{32}6,5,4,3,2,1,8,7,{16}6b,,,,
1-5[8:1],,,,,,6,64,,87,,1,2-6[8:1]/1,,3,,
5,,7,,1,5,,43,,31,,81,,,7,,
6-2[8:1],,,,,,1,31,,81,,6,45,,2,,
3h[16:3],,,5h[16:3],,,7h[8:11],,,,,,,,,,
{4},,,8b,

{16}
2-6[8:1],,,,8h[8:3],,,,,,6,,5,5,,1h[16:3],
,,3h[16:3],,,5,,3h[16:3],,,2,,8,,4,,
6-2[8:1],,,,3h[8:3],,,,,,4,,5,5,,8h[16:3],
,,6h[16:3],,,4,,6h[16:3],,,8,,4,,6,,
2-6[8:1],,,,8h[8:3],,,,,,7,,6,6,,4h[16:3],
,,5,,7,7,,1,,2h[16:3],,,8,,6,,
5-1[8:1],,,5-2[8:1],,,,,,,8,,7,7,,4h[16:3],
,,6h[16:3],,,8,,6h[16:3],,,4,,23,,18,,

7-3[8:1],,,7-4[8:1]/3b,,,7b,,,6h[16:3],,,2,,4,4,
2h[16:3],,,8h[16:3],,,6h[16:3],,,4,,,2,,4,4,
5-2[8:1],,,5-1[8:1]/2b,,,5b,,,7h[16:3],,,6,,4,4,
3h[16:3],,,5h[16:3],,,7h[16:3],,,1,,,8,,6,6,
4,,,5,,,6,,,7,,,8,,8,,
6,,,5,,,4,,,3,,,2,,2,,
4,5,,5,6,,6,7,,7,8,,1,2,1,2,
1,1,,7,7,,5,5,,3,3,,1,8,1,8,
{32}1,2,3,4,5,6,7,8,{16}6,1,4,2,{12}8,6,4,{8}1-5[8:1]/2b,,

3h[8:3],,,6,{12}5b,4b,3b,2b,1b,8b,
{16}12,,,24,,,36,,{8}4/8b,,7-2[8:1]/3b,,
3h[8:3],,,1,8h[8:3],,,,
{12}1b/2b,3,3,4b/5b,6,6,{8}7b/8b,,1-5[8:1],,
7h[8:3],,,6,{12}7b,6b,5b,4b,3b,2b,
{16}78,,,,,,1,,24,,,36,,,48,,
{8}8h[8:3],,,6,4h[8:3],,,,
{12}5b/6b,7,7,1b/8b,2,2,{16}1b/8b,,,,,,,,

4-7[8:1]/1,,,,,,,8,,6,6,,4h[4:1],,,,
3-6[8:1],,,,,,,7,,1,1,,26,,4,,
6-3[8:1],,,,,,,2,,8,8,,7h[4:1],,,,
5-1[8:1],,,,,,,2,,3,3,,56,,7b/8b,,
3-8[8:1],,,,,,,7,,1,1,,2h[4:1],,,,
7-4[8:1],,,,,,,3,,1,1,,26,,4,,
4-8[8:1],,,,,,,6,,4,4,,2h[4:1],,,,
4h[16:3],,,6,,,7h[8:3]/8h[8:3],,,,,,,,,,

8^3[8:1]/7,,6,,7h[16:3],,,4h[16:3],,,1,,2^7[8:1]/6,,,4,
,,2h[16:3],,,8h[16:3],,,4h[16:3],,,6h[16:3],,,2,,
3^6[8:1]/1,,2,,3,,,8h[16:3],,,6h[16:3],,,4,,,
{12}48,15,26,3^6[8:1]/7^2[8:1],,,3b/7b,,1b/5b,,2b/6b,,
{16}8-4[8:1]/4,,6,,2h[16:3],,,7h[16:3],,,6,,1-5[8:1]/5,,,3,
,,6h[16:3],,,2h[16:3],,,8h[16:3],,,4h[16:3],,,7,,
2-6[8:1]/6,,5,,4,,,7h[16:3],,,4h[16:3],,,1,,,
3h[16:3],,,5h[16:3],,,7h[2:1],,,,,,,,,,
{12}8-4[8:1],7b,6b,5-1[8:1],4b,3b,2-6[8:1],1b,8b,7-3[8:1],,,

{1},,
E

Re:MASTER

(140)
{4}4-8[8:1],,
{16}3,4,2,6,5,8,3,4,1,6,5,7,1,,35,,
6,5,7,3,4,1,6,5,8,3,4,2,8,,46,,
6,5,7,3,4,1,6,5,8,3,4,2,8,,46,,
3,4,2,6,5,8,3,4,1,6,5,7,1,,35,,
3,3,4,3,3,6,3,3,8,3,3,6,3,5,4,4,
6,6,5,6,6,3,6,6,1,6,6,3,6,4,5,5,
2,2,4,2,2,7,2,2,1,2,2,7,2,8,4,4,
7,7,5,7,7,2,7,7,8,7,7,
{32}1,2,3,4,58,7,6,5,
{16}4/1h[16:9],,,,,,,,,8-4[8:1],,,,8b,,,,

{16}2h[16:3]/6,,4,,7-3[8:1],1,,5,,1,,1,8,7,,7,,3,24,,6-2[8:1],1,,5,,4,,5,5,,46,,
7h[16:3]/3,,5,,2-6[8:1],8,,4,,8,,8,1,2,,2,,6,57,,3-7[8:1],8,,4,,6,,4,4,,35,,
2h[16:3]/6,,4,,7-3[8:1],1,,5,,1,,1,8,7,,7,,3,24,,6-2[8:1],1,,5,,4,,5,5,,46,,
7h[16:3]/3,,5,,2-6[8:1],8,,4,,8,,8,1,,27,,
3/6h[16:3],,,8h[16:11],,,4h[16:8],,,,,,,,,,
2h[16:3]/6,,4,,7^2[8:1],1,,1,,5,,4-1[8:1],5,6,,6,,5,,,6-2[8:1],1,,1,,4,,8,8,,46,,
7h[16:3]/3,,5,,2^7[8:1],8,,8,,5,,4,4,,,,
{12}5^2[8:1]*^8[8:1],5,5,,,,
{32}1w5[8:1],1,1,1,1,1,1,1,,,,,,,,,
{16}7h[16:3]/3,,5,,2-6[8:1],8,,8,,4,,5-8[8:1],3,1,,1,,4,,,3-7[8:1],8,,8,,4,,1,1,,35,,
2h[16:3]/6,,4,,7,1,,8,
{32}1,2,3,4,58,7,6,5,14,2,3,4,58,7,6,5,
{16}1h[16:3]/4,,,4h[16:9],,,8h[16:10],,,,,,,,,,
{12}4,4,4,48,48,48,4-8[8:1]*v1[8:1]/7,46,45,4,,,

{16}3^6[8:1]/5,,,2h[16:6],,,,,,4,,,7^4[8:1]/8,6,,2,,,1,,2-7[8:1]/8,,,4,,4h[16:3],,,8,,,,
6^3[8:1],,,7,,,,8,,4,,,2^7[8:1]/6,,,4,,,4,,1h[16:6],,,4,,,4,,6,,78,,
6^3[8:1]/4,,,7h[16:6],,,,,,5,,,2^5[8:1]/1,3,,7,,,8,,7-2[8:1]/1,,,5,,5h[16:3],,,1,,,,
3^6[8:1],,,2,,,,1,,5,,,7^2[8:1]/3,,,5,,,5,,8h[16:6],,,5,,,5,,3,,12,,
7h[8:1],,5,6h[8:1],,4,5h[8:1],,3,4h[8:1],,2,3,,3,,
2h[8:1],,4,3h[8:1],,5,4h[8:1],,6,5h[8:1],,7,6,,6,,
6h[8:1],,8,7h[8:1],,1,8h[8:1],,2,1h[8:1],,3,2,,2,,
3h[8:1],,1,2h[8:1],,8,1h[8:1],,7,8h[8:1],,6,7,,46,,
3,4,2,6,5,7,3,4,2,6,5,7,1,1,8,3,
6,5,7,3,4,2,6,5,7,3,4,2,8,8,1,6,
3,3,4,3,3,6,3,3,8,3,3,6,3,5,4,4,
7,7,5,7,7,2,7,7,8,7,7,2,7,7,1,8,
{32}1,2,3,4,5,6,7,8,{16}1,3,5,7,{12}1,4,7,5b/8b,,,

{8}4h[4:1]/6h[4:1],,,35,{12}2^5[8:1]/6^1[8:1],15,15,,,,
{16}8h[16:3]/4,,,2h[16:3],,,4,,{32}15,24,,,,,,,84,75,,,,,,,
{8}3h[4:1]/5h[4:1],,,46,3-6[8:1]/7-2[8:1],26,,,
{32}57,6,,{12}8,1,{32}24,3,,{12}1,8,{32}2qq8[8:1]/7pp1[8:1],36,45,,,,,{8},,
3h[4:1]/6h[4:1],,,45,{12}2^4[8:1]/7^5[8:1],36,18,2V85[4:1]/7V14[4:1],,,{4}27,,
{24}24,15,,,57,48,,,36,27,,,
{8}36,,4^1[8:1]/5-1[8:1],36,4-8[8:1]/5^8[8:1],,45,,
{12}1b/8b,2,3,4b>5[4:1]/5bpp4[4:1],6,7,4b/5b,,,,,,

{16}7h[16:3]/3,,5,,2,6-2[8:1],,4,,6-4[8:1],,1,1,6,,8,,,57,,4,5-1[8:1],,3,,5-7[8:1],,3,4,5,3,,
2h[16:3]/6,,4,,7,3-7[8:1],,5,,3-5[8:1],,8,8,3,,1,,,24,,5,4-8[8:1],,6,,4-2[8:1],,6,5,4,6,,
7h[16:3]/3,,5,,2,6V42[8:1],,4,,6-8[8:1],,1,1,6,,4,,,57,,4,5-1[8:1],,3,,5-7[8:1],,3,4,5,3,,
2h[16:3]/6,,4,,7,3V57[8:1],,5,,3-1[8:1],,8,8,3,5,,
3h[16:3]/6,,,1h[16:11],,,5h[16:8],,,,,,,,,,
7h[16:3]/3,,5^2[8:1],,1,8,5-7[8:1],6,,4,,2-6[8:1],1,4,,2-4[8:1]/8,,,5,,7-3[8:1],8,,5,,4,,8,8,,35,,
2h[16:3]/6,,4^7[8:1],,8,1,4-2[8:1],3,,5,,8,8,,,,
{12}2pp1[8:1]/6pp5[8:1],26,26,,,,4b/8b,,2b/6b,,4b/8b,,
{16}2h[16:3]/6,,4^7[8:1],,8,1,4-2[8:1],3,,5,,7-3[8:1],8,5,,7-5[8:1]/1,,,4,,2-6[8:1],1,,5,,5,,8,
3,3,4,2,6,5,7,3,4,2,6,6,
{32}1,2,3,4,85,7,6,5,14,2,3,4,85,7,6,5,
{16}1h[16:3]/4,,,5h[16:3],,,8h[16:10],,,,,,,,,,
{12}2b-6[8:1],4b,5b,6b-2[8:1],8b,1b,3b,4b,5b,2b-7[8:1]/6b-3[8:1],,,
{1}2b/6b,,,,E


名前:
コメント:

タグ:

+ タグ編集
  • タグ:

このサイトはreCAPTCHAによって保護されており、Googleの プライバシーポリシー利用規約 が適用されます。

最終更新:2021年05月10日 23:55