City Escape: Act1

BPM EASY BASIC ADVANCED EXPERT MASTER Re;MASTER
130 2 4 5 8+ 12 12

EASY


BASIC


ADVANCED


EXPERT


MASTER

(130){1},{4}
1,2,3,4,
5,6,7,8,
{8}1,2,3,4,5,6,7,8,
{16}8,7,6,5,4,3,2,1,{8}8,1,1b/8b,,

1,6,8,3,45,4,1,8,
18,3,5,7,78,2,8,1,
12,6,7,3,18,4,1-4[8:1],,
8-5[8:1],,2-6[8:1],,7-3[8:1],,,,
6h[2:1],5,4,5,3h[2:1],1,2,1,
7h[2:1],6,5,6,2h[2:1],3,4,3,
1h[4:1],8,7,8,8h[4:1],1,1,,
{16}18,,,27,,,36,,45,,,,1b/8b,,,,

1,8,1,,2,,4,5,4,,3,,8,,7,,
3,4,3,,2,,1,2,3,,8,7,6,,,,
78,,7,,78,,5,,34,,4,,34,,,,
6,5,6,,7,,8,1,8,,8,,7,,,,
12,,2,,13,,4,,78,,7,,68,,,,
2,1,2,,3,,4,3,4,3,4,,1,,,,
13,,,,24,,,,57,,,,68,,,,
15,,26,,37,,48,,18,,1,,1b/8b,,,,

13,,,68,,,4h[8:3],,3,,2,,3,,,,
57,,,24,,,2h[8:3],,3,4,3,,1,,,,
1-4[8:1],,,,8-5[8:1],,,,1-5[8:1],,,,8-4[8:1],,,,
1,2,3,4,5,6,7,8,{8}1,2,1b,,
1,,2-7[4:1],3,4,5,6,,
7,7,6-3[4:1],7,8,1,2,,
1-6[4:1],,2-5[4:1],,,,,,
{1}1^6[2:1],

5^2[2:1],
1-6[2:1]/2-5[2:1],
8-3[2:1]/7-4[2:1],

{8}
1-4[8:5]/2,,3,,5,,6,,
4-7[8:5]/5,,6,8,8,1,1,,
7-2[8:5]/8,,1,,3,,4,,
2-5[8:5]/3,,4,6,6,7,7b,,
{2}
5-8[4:1],7-3[4:1],
2-6[4:1],1-4[4:1],
5-8[4:1],8-4[4:1],
{16}1b,2,3,4,8b,7,6,5,1b,2,3,4,8b,7,6,5,

{8}
13,2,13,2,86,7,86,7,
1,8,1,{16}4,5,4,5,{8}4,5,,
57,6,57,6,42,3,42,3,
4,5,4,{16}8,1,8,1,{8}8,1,,
12,3,12,3,56,4,56,4,
46,46,35,35,18,18,45,45,
4,4,3,3,2,2,1,1,
{16}1b,2,3,4,5b,6,7,8,1b,2,3,4,5b,6,7,8,

{8}
12,2,12,2,87,7,87,7,
6,5,4,{16}2,3,2,3,{8}2,3,,
56,6,56,6,43,3,43,3,
2,1,8,{16}7,6,7,6,{8}7,6,,
12,1,18,8,78,7,27,18,
1h[4:1]/5h[4:1],,,,48,,1b/8b,,

{4}
4,3,2,1,
8,7,6,5,
{8}4,3,2,1,8,7,6,5,
{16}4b,3,2,1,8b,7,6,5,4b,3,2,1,1b/8b,27,36,45,
{4},3b/6b,2b/7b,1b/8b,
2-5[8:1],,7-4[8:1],,
1-4[8:1],8-5[8:1],2-6[8:1],,
{1}1-4[4:1]/8-5[4:1],

,,
E

Re:MASTER


名前:
コメント:

タグ:

+ タグ編集
  • タグ:

このサイトはreCAPTCHAによって保護されており、Googleの プライバシーポリシー利用規約 が適用されます。

最終更新:2021年08月22日 00:26