しゅわスパ大作戦☆

BPM EASY BASIC ADVANCED EXPERT MASTER Re:MASTER
140 2 5 6 9+ 12+ -

EXPERT MASTER Re:MASTER
譜面制作者 mai-star 某S氏 -

EASY


BASIC

(140.0){1},,
{1}8-5[2:1],
{1}1-4[2:1],
{2}3/6,2/7,
{1}1b/8b,,
{4}1,1,1,1,{1},
{1}8h[2:1],
{1}7h[2:1],
{1}1h[2:1],
{2}2h[4:1],2b,
{1}3h[2:1],
{1}4h[2:1],
{1}5h[2:1],
{2}6h[4:1],6b,
{1}7-2[2:1],
{1}3-6[2:1],
{1}8-5[2:1],
{1}1-4[2:1],
{1}1h[8:3]/8h[8:3],
{4}1h[8:3]/8h[8:3],,,1-4[4:3]/8-5[4:3],{1},
{2},1b,
{4}8,8,8,,
{4}7,7,7,,
{2}6,5,
{4}4,,3,3,
{4}2,2,2,,
{4}1,1,1,,
{4}8,,8,8-4[2:1],{1},
{4}1,1,1/8,,
{4}2,2,2/3,,
{2}3,4,
{4}5,,6,6,
{4}7,7,7/8,,
{4}8,8,1/8,,
{4}1,,1,1-5[2:1],{1},
{1}8h[2:1],
{1}7h[2:1],
{1}6h[2:1],
{1}5h[2:1],
{1}4h[2:1],
{1}3h[2:1],
{1}2h[2:1],
{2}1b,1,
{2}1,1,
{4}8,8,7,7,
{4}8,8,1,1b,
{1}1h[2:1]/8h[2:1],
{4}2,1,2,,
{4}7,8,7,,
{2}7,8,
{4}1,,2,2,
{4}3,4,3,,
{4}6,5,6,,
{2}6,5,
{2}4,3,
{4}2,1,1/2,,
{4}7,8,7/8,,
{1}1h[2:1],
{1}8h[2:1],
{2}2/7,2/7,
{4}1/8,1/8,1/8,,
{2}1,8,
{1}1h[2:1],
{1}1-4[2:1],
{1}8-5[2:1],
{1}2-7[2:1],
{1}6-3[2:1],
{1}2h[2:1],
{1}1h[2:1],
{1}8h[2:1],
{1}7h[4:3],
{4},1b/8b,
E

ADVANCED

(140.0){1},,
{2}2h[2:1],8h[2:1],
{2}1h[2:1],7h[2:1],
{1}1-5[2:1],
{4}2,2,8,8,
{4}1,1,7h[4:1],,
{4}7,7,1,1,
{4}8,8,1h[4:1],,
{4}2,,1,2,
{4}3,,4,3,
{4}5,,6,5,
{2}7,7b/8b,
{4}1h[4:1],,8,7,
{4}8h[4:1],,1,2,
{4}1h[4:1],,1,8,
{4}1,8,1b/8b,,
{4}1,1,1,,
{4}3,3,3,,
{4}5,5,5,5,
{4}7,7,7,,
{1}7h[8:3]/8h[8:3],
{4}1h[8:3]/2h[8:3],,,2-6[8:3],{1},
{4}1/8,1/8,2b/7b,1b/8b,
{4}2,1,7/8,,
{4}7,8,1/2,,
{4}3,4,5,6,
{4}7,8,1,,
{4}1,8,7h[4:1],6,
{4}8,1,2h[4:1],3,
{4}1,1,8-4[16:3],,
{4}1,3,5,7b,
{4}1/8,2/8,3/8,,
{4}3/8,3/7,3/6,,
{4}4/5,3/6,2/7,1/8,
{4}1/8,2/7,3/6,4b/5b,
{4}3,4,5,6,
{4}7/8,1/8,1/2,,
{4}8,6,4,2,
{1}8h[2:1],
{1}1h[2:1],
{1}7h[2:1],
{2}5h[4:1],3h[4:1],
{1}4h[2:1],
{1}1-4[2:1],
{1}8-5[2:1],
{2}2h[4:1],1h[4:1],
{4}6,6,7,7,
{4}8,8,1,1,
{4}2,2,3,3,
{4}2,2,{2}2-6[16:3],{1},
{4}8,8-4[16:3],,,
{4}1,1-5[16:3],,,
{2}8-5[16:3],1-4[16:3],
{4}6,7,8b,,
{4}1,2-6[16:3],,,
{4}8,7-3[16:3],,,
{4}2,1,8h[4:1],,
{4}8,6,4,2b,
{4}2,1-4[16:3],,,
{4}7,8-5[16:3],,,
{2}1-5[16:3],8-4[16:3],
{4}3,2,1b,,
{4}1/8,1-4[16:3]/8-5[16:3],,,
{4}4/5,3/6,1b/8b,,
{2}1h[4:1]/2h[4:1],7h[4:1]/8h[4:1],
{4}1/2,1/2,7/8,7b/8b,
{4}1,2,1h[4:1],,
{4}8,7,8h[4:1],,
{4}1,1,8,8,
{4}1,3,5,7b,
{4}6,5,6h[4:1],,
{4}3,4,3h[4:1],,
{2}8h[4:1],1h[4:1],
{4}2,1,8,7,
{4},1h[4:3]/8h[4:3],,,,
E

EXPERT

(140.0){1},,
{4}1,2^5[4:1],,,
{4}8,7^4[4:1],,,
{4}1,2^5[4:1],,,
{4}4,3,2,1,
{4}3h[4:1],4,1h[4:1],2,
{4}5,6,7,8,
{4}6h[4:1],5,8h[4:1],7b,
{4}3h[2:1],,4,4,
{4}6h[2:1],,5,5,
{4}3h[2:1],,2,4,
{8}6h[8:3],,,7,7,,,,
{8}2h[8:3],,,3,3,,4,,
{8}7h[8:3],,,6,6,,5,,
{8}2h[8:3],,,1,1,,3,,
{2}7h[2:1],8b,
{4}3^6[4:1],,8,7,
{4}6^3[4:1],,1,2,
{4}3^6[4:1],,8,7,
{16}4/5,,,2/7,,,1,,8,,,,1/8,,,,
{16}1,,,2,,,3h[8:3],,,,,,4,,,,
{16}8,,,7,,,6h[8:3],,,,,,5,,,,
{2}1-5[4:1],8-4[4:1],
{4}1,7/8,1/2,3/7,
{8}2^5[4:1]/6^1[4:1],,,,,,2,1,
{8}8,,6^3[4:1],,,,,7,
{8}7,,2,3,4-1[4:1],,,,
{8}8-5[4:1],,,,,,1,2,
{8}3,,7,6,5,,2,3,
{8}4,,7/8,,5/6,,,3,
{4}3h[4:1],4h[4:1],5h[4:1],6,
{4}3/4,6/7,1/2,2/6,
{8}3^8[4:1]/7^4[4:1],,,,,,7,8,
{8}1,,3^6[4:1],,,,,2,
{8}2,,7,6,5-8[4:1],,,,
{8}1-4[4:1],,,,,,8,7,
{8}6,,2,3,4,,7,6,
{8}5,,1/2,,3/4,,,6,
{4}6h[4:1],5h[4:1],4h[4:1],3^6[4:1],
{8},,,,,,8,7,
{8}6^3[4:1],,,,,,1,2,
{1}3^6[4:1],
{2}7^4[4:1],2^5[4:1],
{1}8-5[2:1],
{2}6h[2:1],5h[2:1],
{4}4,3^6[4:1],,,
{2}2h[4:3],7h[4:1],
{8}7,7,7/8,,2,2,1/2,,
{8}7,8,7/8,,2,1,1/2,,
{4}7/8,1/2,6/8,1/3,
{8}1/6,,3/8,,2/7,2/7,1b/8b,,
{8}3^8[4:1]/7^4[4:1],,,,,,2/6,3/7,
{8}2^5[4:1]/6^1[4:1],,,,,,2,1,
{8}8,7,6^3[4:1],,,,,7,
{8}8,1,2,3,4^7[4:1],,,,
{8}8^3[4:1],,,,,,1,2,
{8}3h[4:1],,7,6,5,,2,2,
{16}4,,4,,6,,6,5-8[8:1],,,,,,,2,,
{4}2h[4:1],1h[4:1],8h[4:1],7,
{8}5-1[8:1],,4-8[8:1],,,,3/7,2/6,
{8}3^8[4:1]/7^4[4:1],,,,,,7,8,
{8}1,2,3^6[4:1],,,,,2,
{8}1,8,7,6,5^2[4:1],,,,
{8}1^6[4:1],,,,,,8,7,
{8}6h[4:1],,2,3,4,,7,7,
{16}5,,5,,3,,3,4-1[8:1],,,,,,,7,,
{4}7h[4:1],8h[4:1],1h[4:1],2,
{8}4-8[8:1],,5-1[8:1],,,,2/6,3/7,
{4}2^5[4:1]/6-1[4:1],,,2h[2:1],
{4}3,7h[2:1],6,2h[2:1],
{4}4,7h[2:1],5,2,
{8}4-8[8:1],,5-1[8:1],,,,3/7,2/6,
{4}3-8[4:1]/7^4[4:1],,,1h[2:1],
{4}2,8h[2:1],7,4h[2:1],
{4}3,5h[2:1],6,4,
{4}3/6,2/7,1^6[4:1]/8^3[4:1],,
{4},2b/7b,
E

MASTER

(140){16}
,,,,,,,,,,,,1,,8,,
2h[4:1],,7,,5,,6,6,,,,,8,,1,,
7h[4:1],,2,,4,,3,3,,,,,,,6,,
2h[8:3],,,,3,,4,,7h[8:3],,,,6,,5,,
3-7[8:1],,4-8[8:1],,,,,,5-1[8:1],,6-2[8:1],,,,,,
8,,7,,6,,5,,1,2,,3h[16:3],,,4,,
{8}
6-2[8:1],5-1[8:1],,,4-8[8:1],3-7[8:1],,,
8^5[4:1],,5^2[4:1],,2^7[4:1],,7b,,

1h[2:1],,,7,7h[2:1],,4,5,
6h[2:1],,,3,3,,,2,
2h[2:1],,,8,8h[2:1],7,6,5,
4h[4:1],,3h[4:1],,1,,6,7,
8h[2:1],,,2,2h[2:1],,5,4,
3h[2:1],,,6,6,,,7,
7h[2:1],,,1,1h[2:1],2,3,4,
5h[4:1],,6h[4:1],,8b,,5,3,

7,,4-8[16:1]/5,,1,,6,7,
2^7[8:1],,6,6h[4:1],,7,6,5,
4^1[8:1],,8,8h[4:1],,7,5,3,
{16}
24,,,46,,,15,,37,,,,5,,4,,
12,,,67,,,24,,,,,,4,,5,,
87,,,32,,,75,,,,,,7,,7,,
{4}
6-1[16:1],8,3-8[16:1],1,
1-6[16:1],3-8[16:1],5-2[16:1],7-4[16:1],

{16}
3,2,1,8,7,6,5,3b/4b,,,,,57,,6,,
24,,3,,26,,1,8,,,,,,,6,,
2-6[16:1],,,,8,,7,,7-4[16:1],,,,1,,2,,
3,,6^3[8:1],2^7[16:1],,,,,,,,,6,,7,,
8-4[16:1],,,,5,,3,,2-6[16:1],,,,8,,7,,
3,,1,,7,,6,5h[16:5]/7h[16:5],,,,,,,5,,
3^8[16:1],,,,4,,5,,6^1[16:1],,,,5,,4,,
3-7[16:1],,6-2[16:1],,,,,,4-8[16:1],,5-1[16:1],,,,,,

3,,7,,2,,6,3^6[16:1]/7h[16:5],,,,,,,,,
2,,5,,7,,3,6^3[16:1]/2h[16:5],,,,,,,7,,
5h[4:1],,4,,4h[4:1],,2,,2,,,,15,,7,,
26,,4,3h[16:5]/7h[16:5],,,,,,,,,5,,3,,
2-6[16:1],,,,1,,8,,7-3[16:1],,,,1,,2,,
7,,8,,2,,3,2h[16:5]/4h[16:5],,,,,,,5,,
5-1[16:1],,,,6,,7,,4-8[16:1],,,,3,,1^6[8:5],1h[16:13],
{4},,,,

6-1[2:1],,,,
3-8[2:1],,,,
1^4[4:1],,5^8[4:1],,
1-5[2:1],,,,
6-2[4:1],2^5[4:1],5^8[4:1],8-4[4:1],
4,1-5[16:1],,,
1h[4:1]/6h[4:1],,3h[4:1]/8h[4:1],,
{8}
3,2,13,,6,7,68,,
17,8,17,,28,{16},1,{8}28,17,
4,7b/8b,5,1b/2b,3,7b/8b,6,1b/2b,
34,1b/7b,56,2b/8b,4-8[16:1]/5-1[16:1],45,,,
{16}
3,2,1,8,7,6,5,3b/4b,,,,,5,,3,,

7-3[16:1],,2,,1,,6,6h[16:5],,,,,4,,3,,
2-6[16:1],,7,,8,,3,3h[16:5],,,,,,,6,,
5-2[16:1],,,,4,,2,,3-7[16:1],,,,6,,8,,
2,,2-6[16:1],7-3[16:1],,,,,,,,,6,,7,,
8-4[16:1],,,,5,,3,,2-5[16:1],,,,6,,8,,
7,,2,,5,,37,2h[16:5]/6h[16:5],,,,,,,5,,
2^5[16:1],,,,2,,1,,8^5[16:1],,,,8,,1,,
3-7[16:1],,6-2[16:1],,,,,,5-1[16:1],,4-8[16:1],,,,,,

26,,7,,15,,2,4-8[16:1]/6-2[16:1],,,,,,,,,
73,,1,,26,,7,5-1[16:1]/3-7[16:1],,,,,,,2,,
4h[4:1],,5,,5h[4:1],,7,,7,,,,67,,34,,
67,,34,3-6[16:1]/4-7[16:1],,,,,,,,,7,,8,,
2^7[16:1],,6-2[16:1],,,,,,7^2[16:1],,3-7[16:1],,,,,,
1,,8,,4,,26,1h[16:5]/5h[16:5],,,,,,,5,,
7^4[16:1],,,,3,,2,,1^4[16:1],,,,6,,8,,
4,,7b/8b,,5,,1b/2b,,34,,1b/7b,,56,,2b/8b,,
1,,5,,3,,7,1h[16:5],,,,,3,,,,
8h[4:1],,,,6,,,,1h[4:1],,,,3,,,,
7h[4:1],,6,,4,,,,2h[4:1],,3,,5,,,,
3-7[16:1],,6-2[16:1],,,,,,6-2[16:1],,3-7[16:1],,,,,,
8,,4,,6,,2,8h[16:5],,,,,6,,,,
1h[4:1],,,,3,,,,8h[4:1],,,,6,,,,
2h[4:1],,3,,5,,,,7h[4:1],,6,,4,,,,
{8}
4,36,5,48,25,16,4,38,
,5,26,,,,,,
,,{32},,,1b,{8},,,,,

{1},
E

名前:
コメント:

タグ:

+ タグ編集
  • タグ:

このサイトはreCAPTCHAによって保護されており、Googleの プライバシーポリシー利用規約 が適用されます。

最終更新:2022年08月06日 07:57