ローリンガール

BPM EASY BASIC ADVANCED EXPERT MASTER
195 2 4 6 8+ 12+

EASY


BASIC

(195.0){1},,,,,,,,
{1}2,
{1}2,
{1}1,
{1}1,
{1}8,
{1}8,
{1}7,
{1}7,
{1}6,
{1}6,
{1}5,
{1}5,
{1}4,
{1}4,
{1}3,
{1}3,
{2}1,2,
{1}3,
{1}4h[1:1],,
{2}5,6,
{1}7,
{1}8h[1:1],,
{1}7,
{1}6,
{1}5,,
{1}1-5[8:5],,
{1}8-4[8:5],,
{2}3/4,3/4,{1},
{2}5/6,5/6,{1},
{2}7/8,7/8,{1},
{2}1/2,1/2,{1},
{2}8,7,
{1}6,
{1}5h[1:1],,
{2}4,3,
{1}2,
{1}1h[1:1],,
{2}7,8,
{1}7,
{2}1,8,
{1}1,
{1}1,
{1}2,
{1}3,
{2}4,5b,
{1}3/6,
{1}3/6,
{1}7-4[8:5],,
{1}4/5,
{1}4/5,
{1}3-6[8:5],,
{2}7,7,
{2}8,8,
{2}1,2,
{2}3,4,
{1}4/5,
{1}3/6,
{1}2/7,
{1}1h[2:1]/8h[2:1],
{2}8,8b,
{2}1,1b,
{2}8,7,
{2}6,5,
{1}4h[2:1]/5h[2:1],
{1}4h[2:1]/5h[2:1],
{1}6-3[8:5],,
{4}2,2,2b,,
{4}1,1,1b,,
{2}8,8-4[4:3],{1},
{2}3,3,
{2}2,2,
{2}1,8,
{8}1-4[8:5]/8-5[8:5],,,,,,,,
E

ADVANCED

(195.0){4}3,3h[4:5],,,{1},
{4}6,6h[4:5],,,{1},
{4}3,3^6[1:1],,,{1},
{4}7,7^2[1:1],,,{1},
{2}1,1,
{2}3,3,
{2}5,5,
{2}7,7,
{2}8,8,
{2}6,6,
{2}4,4,
{2}2,2b,
{4}1,1,,,
{4}3,3,,,
{4}5,5,,,
{4}7,7,,,
{4}8,8,,,
{4}6,6,,,
{4}4,4,,,
{4}2,2,2b,,
{1}2^5[2:1],
{1}7h[2:1],
{4}2,2,5,,
{4}7,7,4,,
{1}7^4[2:1],
{1}2h[2:1],
{4}7,7,4,,
{4}2,2,5,,
{1}1-6[4:3],
{4},,5,5,
{1}5-2[4:3],
{4},,1,1,
{1}1^6[4:3],
{4},,5,5,
{1}5^2[4:3],,
{4}8,8h[4:3],,,
{577}7,,,,,,,,,,,,,,,,,,,,,,,,,,,,,,,,,,,,,,,,,,,,,,,,,,,,,,,,,,,,,,,,,,,,,,,,,,,,,,,,,,,,,,,,,,,,,,,,,,,,,,,,,,,,,,,,,,,,,,,,,,,,,,,,,,,,,,,,,,,,,,,,,,,,,,,,,,,,,,,,,,,,,,,,,,,,,,,,,,,,,,,,,,,,,,,,,,,,,,,,,,,,,,,,,,,,,,,,,,,,,,,,,,,,,,,,,,,,,,,,,,,,,,,,,,,,,,,,,,,,,,,,,,,,,,,,,,,,,,,,,,,,,,,,,,7,,,,,,,,,,,,,,,,,,,,,,,,,,,,,,,,,,,,,,,,,,,,,,,,,,,,,,,,,,,,,,,,,,,,,,,,,,,,,,,,,,,,,,,,,,,,,,,,,,,,,,,,,,,,,,,,,,,,,,,,,,,,,,,,,,,,,,,,,,,,,,,,,,,,,,,,,,,,,,,,,,,,,,,,,,,,,,,,,,,,,,,,,,,,,,,,,,,,,,,,,,,,,,,,,,,,,,,,,,,,,,,,,,,,,,,,,,,,,,,,,,,,,,,,,,,,,,,,,,,,,,,,,,,,,,,,,,,,,,,,,,,,,,,
{4}6,6h[4:3],,,
{2}5,5,
{4}4,4h[4:3],,,
{2}3,3,
{4}2,2h[4:3],,,
{2}1,1b,
{1}3^6[2:1],
{1}7-3[2:1],
{4}2,2,1/2,,
{4}7,7,7/8,,
{1}6^3[2:1],
{1}2-6[2:1],
{4}8,8,7/8,,
{4}1,1,1/2,,
{2}2/7h[2:1],6,
{2}7/2h[2:1],3,
{4}3,2,1,,
{4}8,7,6,,
{2}3/5,4/6,
{2}5/7,6/8,
{1}1^4[4:5]/8^5[4:5],,
{4}2h[2:1],3,4,,
{4}7h[2:1],6,5,,
{4}4,4,3h[4:1],,
{4}5,5,6,,
{1}7-3[4:1],
{1}2-6[4:1],
{2}1/2,7/8,
{4}3/4,4/5,5/6,,
{4}2,1,1/2,,
{4}7,8,7/8,,
{4}6,6,3/4,,
{4}3,3,5/6,,
{2}7h[2:1],8h[2:1],
{2}1h[2:1],2,
{1}3h[1:1],
{4}4h[2:1],,5,5b,
{4}3,4,5/7,,
{4}6,5,2/4,,
{4}2,2,1/3,,
{4}7,7,6/8,,
{1}7-3[4:1],
{1}2-6[4:1],
{4}7,7,8,8,
{4}1,1,1b/2b,,
{1}7-4[4:1],
{1}2-5[4:1],
{4}5,5,4/6,4/6,
{4}3,3,2/4,2/4,
{2}1,8,
{2}5/7,5/3h[8:11],
{1}2h[8:7],
{8},,,,1b,1b,
E

EXPERT

(195.0){1}4-1[4:3],,
{1}7-2[4:3],,
{1}2h[4:7]/7h[4:7],,
{1}4-1[4:3]/5-8[4:3],,
{4}8,1-5[4:1],,,
{4}5,4,3,2,
{4}1,8-4[4:1],,,
{4}4,5,6,7,
{4}8h[4:1],7,6,,
{4}1,2,3,4,
{4}1h[4:1],2,3,,
{4}8,7,6,5,
{4}1,3^6[2:1],,,
{4}7,6,5,4,
{4}8,6^3[2:1],,,
{4}2,3,4,5,
{1}2^7[2:1],
{1}6^3[2:1],
{4}7,2-5[4:1],,,
{4}2,3-8[4:1],,,
{1}4^7[2:1],
{1}4^1[2:1],
{1}7^4[2:1],
{4}1-4[4:1],,,2/4,
{2}3/7,4-1[2:1],
{4},,,1-4[2:1],
{4},,,1^4[2:1]/8^5[2:1],{1},
{1}4^7[2:1]/5^2[2:1],
{1}2h[2:1]/7h[2:1],
{2}1/8,2-5[4:1]/7-4[4:1],
{2},6^3[2:1],
{2},2^7[2:1],
{2},6^1[2:1],
{2},2^5[2:1],{1},
{4}3,4,5,6,
{4}7h[4:3],6,5,4,
{2}7-4[4:1],2-5[4:1],
{8}7-4[4:1],,,,,2,2,,
{4}2/7,1/8,2-5[4:1]/7-4[4:1],,
{2},4/8,
{1}3^8[2:1]/7^4[2:1],
{8},,,,,2/7,3/6,,
{2}7h[2:3],1-4[4:3],{1},
{1}5^2[8:3],
{4}4^7[8:3],,,7,
{2}2,1-4[2:1],
{2},5-8[2:1],{1},
{1}2^7[2:1],
{4}1h[4:1],2^5[4:1],,,
{4}8h[4:1],7^4[4:1],,,
{1}4^7[2:1]/5^2[2:1],
{4}7,2,1,4-8[2:1],{1},
{1}7-2[2:1],
{1}1^4[4:3]/6^1[4:3],,
{4}1/8,6,1/8,3,
{4}1/8,6,1/8,3,
{4}7,8^3[4:1],,,
{4}3,4^7[4:1],,,
{4}7h[4:1],6-3[4:1],,,
{4}2h[4:1],3-6[4:1],,,
{2}8^5[4:1],4^1[4:1],
{4}8,6-3[4:1],,,
{2}1h[4:1]/8h[4:1],2/7,
{4}3/6,4/5,3/6,,
{4}2/7,8/7^4[4:1],,,
{4}2,3-6[4:1],,,
{2}7h[1:1],6,
{2}2h[2:1],6^3[2:1],
{2},2^7[2:1],
{4},,4/5,1/8,
{4}7,1-4[4:1],,,
{4}1/8,6,1/8,,
{4}7,8^3[4:1],,,
{4}3,4^7[4:1],,,
{4}7h[4:1],6-3[4:1],,,
{4}2h[4:1],3-6[4:1],,,
{2}8^5[4:1],4^1[4:1],
{4}8,6-3[4:1],,,
{2}1h[4:1]/8h[4:1],2/7,
{4}3/6,4/5,3/6,,
{4}2/7,8/7^4[4:1],,,
{4}2,3-6[4:1],,,
{1}1/2^5[2:1],
{1}7/6^3[2:1],
{1}2^7[2:1],
{8}8-5[4:1],,,,1b,1b,
E

MASTER

(195){4}
8^3[2:1],8,3^6[2:1],,
,,,,
7^4[2:1],7,4^1[2:1],,
,,,,
1^6[2:1],1,6^3[2:1],,
,,,,
2^5[2:1],2,5^8[2:1],,
,,,,
{8}
6h[4:1],,2h[8:3],,6,7,8,1h[4:1],
,3,4,,25,16,78,,
3h[4:1],,7h[8:3],,3,2,1,8h[4:1],
,6,5,,74,83,21,,
2-6[8:1],,2,,7,8,1,8h[4:1],
,6,8h[2:1],,2,2,2,,
7-3[8:1],,7,,2,1,8,1h[4:1],
,3,1h[2:1],,7,7,7b,,
1h[4:1],,2h[4:1],,3h[4:1],4,5,6h[4:1],
,2,4^1[8:1],,8^5[8:1],8,,,
4h[4:1]/8,,8h[4:1],,1,7,3,5,
,26,48,,1^6[8:1],16,,,
1-4[8:1]/8-5[8:1],,,,7,8,1,2h[8:3],
,6,6h[4:1],,8,8,4,4,
4-1[8:1]/5-8[8:1],,,,3,4,5,3h[8:3]/6,
,1,7,,23,18,67,,

1-5[8:1],,,,3-7[8:1],,,,
6-2[4:1],,,,,,8,1,
,,27,,6-2[4:3],57,,6h[8:5],
,,,,,,6,,
8-4[8:1]/1,,,,4-1[8:1]/3,,,,
1-6[4:1]/5h[2:1],,,,,,1^6[2:1],1h[8:5],
,,,,,,5^2[2:1],5h[8:5],
,,,,,,1b,,
1h[2:1]/8h[2:1],,,,,,36,2h[8:3]/7h[8:3],
,,,,3^6[4:1],,6^1[4:1],,
1^4[4:1],,4-8[4:1],,,,7,7,
,,1,,12,,78,,
8h[4:1],,1h[4:1],,2h[4:1],,3h[2:1],,
4,,2h[4:1],,1h[4:1],,8,,
7h[4:1],,6h[4:1],,5h[4:1],,4h[2:1],,
3,,5h[4:1],,6h[4:1],,7b,,

18,,45,,6,5,3,4,
,7,8,,{16}1,2,3,4,{8}5,,
45,,18,,1,2,8,7,
,1,5,3,15,26,37,,
2h[4:1]/8,,4h[4:1],,6,4,2,8,
,2,1h[4:1],,{16}7,6,5,4,{8}3,,
1-5[8:1]/3-6[8:1],,,,6,5,3,4,
,34,5,56,47,38,1b/2b,,

3h[2:1],,,,1h[2:1],,,,
8^5[4:1],,,,,,5,1,
,,37,,4,8^3[2:1],,6h[8:5],
,,,,,,5,,
4h[2:1],,,,3h[2:1],,,,
2h[2:1],,,,1-5[4:1],,2h[4:3],,
,,,,,6-3[8:3],5,7h[8:3],
,,,,12,,,,
78,,7,,68,,,23,
,,1,,35,,,3h[4:1],
,2,3,4,5,6,7,8h[4:1],
,4,35,,68,,48,,
78,,4b,,12,,5b,,
78,,3b,,12,,6b,,
8,,6,,4,,2,,
1,3,5,7,{16}8,7,6,5,4,3,2,1,

{8}
8h[4:1],,7h[2:1],,6h[4:1],,,1h[8:3],
,,2h[2:1],,3h[4:1],,,12,
,3,4,56,7,8,78,6,
5,34,2,1,78,56,34,,
12,,4^7[8:1]/3,,,,,78,
,,5^2[8:1]/6,,,,,2h[4:1],
,6,5,4,3,4,5,6h[4:1],
,7,6,5,4,3,,,
8^3[4:1],,3^6[8:1]/8,,,,,6,
,1^6[8:1],6^3[8:1],,,,,7h[4:1],
,8h[8:1],7h[8:1],8h[8:1],7h[8:1],6h[8:1],5-1[4:1],5,
1^4[4:1],,4-8[4:1],,8^5[8:1],,,,
1-5[8:1],,,,7-2[8:1],,,,
4-8[8:1],,,,3-7[8:1],,3^8[4:1],,
8^5[4:1],,5^2[4:1],,2-6[8:1],,,,
2h[4:1]/7h[4:1],,,,1-5[8:1]/8-4[8:1],,,,

12,,3^8[8:1]/8^5[8:1],,,,,56,
,,7^4[8:1]/4^1[8:1],,,,,78,
,6,5,34,2,1,12,3,
4,56,7,8,12,34,56,,
87,,5^2[8:1]/6,,,,,21,
,,4^7[8:1]/3,,,,,7h[4:1],
,3,4,5,6,5,4,3h[4:1],
,2,3,4,5,6,,,
1^6[4:1],,6^3[8:1]/1,,,,,7,
,7^2[8:1],2^5[8:1]/7,,,,,2h[4:1],
,1h[8:1],2h[8:1],1h[8:1],2h[8:1],3h[8:1],4-8[4:1],4,
8^5[4:1],,5-1[4:1],,1^4[4:1],,,,
8-4[8:1],,,,2-7[8:1],,,,
5-1[8:1],,,,6-2[8:1],,6^1[4:1],,
1^4[4:1],,4^7[4:1],,7-3[4:1],,3^8[4:1],,
,,,,1,1b,,,

{1},,
E

名前:
コメント:

タグ:

+ タグ編集
  • タグ:

このサイトはreCAPTCHAによって保護されており、Googleの プライバシーポリシー利用規約 が適用されます。

最終更新:2023年01月03日 14:41