めうめうぺったんたん!!(創作譜面:ぐるん)

曲名 めうめうぺったんたん!!
制作者名 ぐるん
音源 http://nicosound.anyap.info/sound/sm20373250

simai用
&first=1.52

maiPad mini用
&seek=0
&wait=1.15
譜面動画 EXPERT
MASTER (多少手を加えてある場合がございます)
制作者コメント ぺたっと"ヾ(゚▽゚*)>ぺたっと(*゚▽゚)ツ" ぺたりこー ヾ(>ヮ<)ノ わふーっ!
ども、ぐるんです!
今回はかの中毒曲「めうめうぺったんたん!!」でmaimai譜面をつくりましたよ!
楽しさ重視ですので楽しんで手とか動かしてみてくださいー。
この譜面作るにあたってなんども聞いたからって中毒になんてなってないめう!←

ブログ:http://grgurun.blog.fc2.com/
BPM EASY BASIC ADVANCED EXPERT MASTER
185 1 1 1 9 9

EASY


BASIC


ADVANCED


EXPERT

(185){8},,,,,,,,,,,,
8h[8:2],1,1,,,,,,
1h[8:2],2,2-6[8:1],,,,,,
3h[8:2],4,4,,
1,3,5,7,2,4,6b,,
1h[8:1]/3h[8:1],,,,2h[8:1],,2b,,
6h[8:1]/4h[8:1],,,,5h[8:1],,5b,,
1h[8:1]/8h[8:1],,,,5h[8:1]/4h[8:1],,5b/4b,,
{16}
2,,7,,1,8,1,,
{8}7,2,6b,,
{8}7,6,5,4,13,,13,,
2,3,4,5,86,7,86,,
{8}7,6,5,4,13,,13,,
2,3,4,5,86,7,86,,

1,8,1,8,1,8,1,8,
1h[8:2],,2h[8:2],,
3,4,5,,
1h[8:1]/8h[8:1],,,18,
2h[8:1]/1h[8:1],,,21,
2,1,3,8,,1h[8:1],8b,,
{8}1h[8:3],,,2,8,2,,2,
8,2,,2,8,2,7,1,
7h[8:3],,,1,8,7,6,5,,,
{4}1/8,4h[4:1]/5h[4:1],,
{8}1h[8:3],,,2,8,2,,2,
8,2,,2,8,2,7,1,
{8}8,1,8,,4,5,4,,

{8}4,5,4,,4h[8:2]/5h[8:2],,,,
5,7,5,,7h[8:2]/5^2[16:1],,,,
3,7,3,,7^2[16:1]/3^6[16:1],,,,
1,2,3,,6,5,4,,
{8}1,6,3,7,1,6,3,7,
1,,6,,1,6,3,7,
1,2,3,4,5,6,7,8,
1-5[16:1],,,,8h[8:2],,3b,,
{1}1-4[4:1]/8-5[4:1],2-5[4:1]/7-4[4:1],
{8},,4,3,2,,1,8-4[4:1],{4},,,,
{8}1,2,3,,5,6,7,,
1,8,7,,5,4,3,,
1,,3,,5,,7,,
{8}35,4,35,4,35,4,35,,
{1}2^7[4:1]/7^4[4:1],2^5[4:1]/5^8[4:1],
{8},,1,3,5,7,1,3b,{4},,,,
{8}1,2,1,2,1,2,1,2,1,3,1,3,1,3,1,3,
1,,13,,13,,13,,
1,2,3,4,5,,5b,,
{8}8,7,8,7,8,7,8,7,8,6,8,6,8,6,8,6,
8,5,8,5,8,5,8,5,8,4,8,4,8,,8b,,
{8},1,2,1,2,,2,,6h[8:2],,7,7,6,,6,,
18,,18,,27,,27,,
,2,3,4,5,6,7,
8,1,2,3,4,,
2,3,4,5,6,7,6,,,,
1,,3,8,2,1,3,8,2,
1b,2b,1b,2b,,
1,2,3,4,5,6,7,,
7,8,1,2,3,4,5,,,,.
{4}1h[4:1],3h[4:1],5h[4:1],7h[4:1],
{8},1,3,5,7b,,
1,8,2,1h[8:1]/8h[8:1],,3h[8:1]/4h[8:1],,,
3,5,4,3h[8:1]/5h[8:1],,2h[8:1]/6h[8:1],,,,,
1h[8:2],,2,8,3,7,5,4,3,1,3,2,5,,,,,,,
1h[8:2],,3h[8:2],,5h[8:2],,7h[8:4],,,8,8,,,
1,,,2,,3,4,5,6,,,7,,8,1,2,,
18,,18,,1,8,1,,45,,45,,4,5,4,,
1,1,,2,3,3,,4,5,6,7,8,,1b,8b,,

3h[8:3],,,2,8,2,,2,
8,2,,2,8,2,7,1,
7h[8:3],,,1,2,3,4,5,,,
{4}1/8,4h[4:1]/5h[4:1],,
{8}1h[8:3],,,2,3,4,,4,
3,3,4,4,5,6,7,8,
{8}1,5,1,,4,6,7,,

{8}4,5,4,,4h[8:2]/5h[8:2],,,,
5,7,5,,7h[8:2]/5^2[16:1],,,,
3,7,3,,7^2[16:1]/3^6[16:1],,,,
1,1,2,2,34,,5h[8:30]/4h[8:30],
{1},,,,,
E

MASTER

(185){8},,,,,,,,,,,,1/3,8/2,2/8,,,,,,2/4,3/5,3/5,
,,,,,1/8,7/2,7/2,,1-4[16:1],,1-5[16:1],,1-6[16:1],,
,,,,,,4/3,5/2,6/1,
,,,,,5/6,4/7,3/8,
,,,,,7/6,5/4,2/3,,
{16}1,2,3,4,5,6,7,8,1,,1/8,,7/2,,
{4},6/2,4/1,3/8,6/5,1/2,6/3,5/1,3/8,2/5,3/2,
{8}7/5,7/5,7/5,,6h[8:2]/4h[8:2],,,,5/3,5/3,5/3,,4/2,,4/2,,1/8,,1/8,
1,,8,,7/3,6/2,5/1,,1,1-4[16:1],,,8,8-5[16:1],,,
4,5,4-1[8:1],5-8[8:1],,,,,

{4}1^4[4:1],4^7[4:1],7^2[4:1],2^5[4:1],5^8[4:1],8^3[4:1],
3^6[4:1],6^1[4:1],1^4[4:1],4^7[4:1],7^2[4:1],2^5[4:1],,5b,8b,,
1/8,2/7,6/3,4/5,6/3,7/2,1/8,8,
{16}8,1,8,1,8,,,,2,1,2,1,2,,,,
{8}4,5,4,5,4h[8:2]/5h[8:2],,,,
5,7,5,7,7h[8:2]/5^2[16:1],,,,
3,7,3,7,7^2[16:1]/3^6[16:1],,,,
8^5[16:1]/2^5[16:1],,,,4^1[16:1]/6^1[16:1],,,,
1,,5h[8:2],,2,,6h[8:2],,1,5h[8:1],2,6h[8:1],1,5h[8:1],2,,
{16}1,,1,,2,3,4,,8,,8,,7,6,5,,
{8}4/5,,6/3,,7/2,7/2,1b/8b,,
2h[8:3],,5,6,7h[8:3],3,4,2b,,
1,8,2,7,6,3,4/5,,,
6/4,6/4,5h[8:2]/3h[8:2],,,5/3,,,,,,,,,
1-5[16:1]/7,,,,8-4[16:1]/2,,,,
1-5[16:1]/7,,,,8-4[16:1]/2,,,,
1-5[16:1],1,,,8-4[16:1],8,,,
2/8-4[8:2],,1-5[8:1]/7,,
,,,,
4h[8:3],,5,6,7h[8:3],3,2,1b,,
1,5,1,6,2,6,2b,,,
8b/4,7/3b,6b/2,5/1b,8b/4,7h[8:7]/3b,,,,,,,,,
{8}1,8,2,7,1,8,2,7,
18,,27,,18,,27,,
18,18,2/7,,18,18,2/7,,
1h[8:1],8,8h[8:1],1,1b/8,,2/7b,,
1,1h[8:1],7,7h[8:1],2,2h[8:1],8,8h[8:1],
2,7,3,6,{16}4,5,4,5,{8}3,6,
3,6,3,6,4,5,3,6,2,7,1,8,6/2b,,
{4}1-6[2:1]/5-2[2:1],,,,6-1[2:1]/2-5[2:1],,,,
1-6[4:1],,2-5[4:1],,,
{8},1,8,1,8b/1,1b/8,8/1b,1/8b,
2,6,73,2/6,,
8-5[4:2]/1,1,2,2,3,3,4b,,,,
1h[8:2],,{16}8,7,6,,1,2,3,,
1/8,2/7,6/3,,4/5,,
{8}4/5,6/3,2/7,1/8b,,
8/4,7/3,6/2,5/1,6/2,7/3,8/4,,
8/4,7/3,6/2,5/1,6/2,7/3,8/4,,,
,,8,7,1,6,2,5,1,6,8/7,87,87,8h[8:1]/7h[8:1],,
1,8,1,7,1,7,1,8,2,8,2,8,1,2,3,4,
3,6,4,6,4,6,3,2,3,4,3,2,3,4,4/3b,,,,,
,,2h[8:2],,1h[8:2],,3h[8:2],,4b,,,8/2,1/3,,,7h[8:8],,,8,,1,2,3,
4h[8:7],,,5,,6,7,8b,,
45,,45,,34,45,65,,18,,18,,12,18,87,,
1,1-4[16:1],,,8,8-5[16:1],,,
4,3,4-7[8:1],7-2[8:1],,,,,
5h[8:2],,,4,6,4,,46,
3,7,,3/7,2,8,2,8,
1h[8:2],,,2,8,2,8,2,,,
2/8b,,1/7b,,,,
4h[8:2],,,3,5,3/5,,3,
8h[8:1],1,1h[8:1],8,
8h[8:1],1,1h[8:1],8,
{16}2,7,2,7,2,,,,1,5,1,5,1,,,,
{8}4,5,4,5,4h[8:2]/5h[8:2],,,,
5,7,5,7,7h[8:2]/5^2[16:1],,,,
3,7,3,7,7^2[16:1]/3^6[16:1],,,,
4,5,3/6,2/7,1/8,,1h[8:30]/8h[8:30],
{1},,,,,
E

名前:
コメント:

タグ:

+ タグ編集
  • タグ:

このサイトはreCAPTCHAによって保護されており、Googleの プライバシーポリシー利用規約 が適用されます。

最終更新:2013年10月06日 00:07