御旗のもとに

BPM EASY BASIC ADVANCED EXPERT MASTER
147 2 4 6 9 10

EASY


BASIC


ADVANCED


EXPERT

(147){1},
{6}5h[6:1],2h[6:1],7h[6:1],4h[6:1],8h[6:1],1h[12:11],
{1},
{16}
3h[16:3],,,4,,,7h[4:1],,,,,,1h[16:3],,,2,
,,8h[8:3],,,,,,7h[4:1],,,,6-2[4:1],,,,
{8}
8b,,,6,,,4,,
,2,,,3h[4:1],,4h[4:1],,
5,,,7,,,1,,
,3,,,2h[4:1],,1h[4:1],,
{16}
8,,,7,,,6h[8:3],,,,,,5,,,7,
,,1h[8:3],,,,,,2^7[8:1],,,,,,,,
5h[16:3],,,4h[16:3],,,3,,12,,,18,,,7h[8:7]/8h[8:7],,
{1},

{8}
1,2,3,4,5h[4:1],,7-3[2:1],,
,,,,,,2,,
8h[8:3],,,6h[8:3],,,,,
8h[8:3],,,2h[8:3],,,,,
1,8,7,6,5h[4:1],,4-8[2:1],,
,,,,,,1,2,
3-8[2:1],,,7,{4}6h[4:5],,
,,,8-4[2:1],

6-2[2:1],,,3h[2:1],
,4h[2:1],,,
8h[1:1],,,,
7h[4:3],,,6-2[2:1],
4-8[2:1],,,7h[2:1],
,6h[2:1],,,
8-3[4:1],,2-5[4:1],,
4-7[4:1],,{12}6,,45,,34,,
{4}1h[4:1]/2h[4:1],,1h[2:1]/8h[2:1],,

,,,8^3[2:1],
,{16},,8,,8,,,,{12}7,,6h[12:5],
{12},4-8[12:5],,{16},,,,,,,,1,,,2,
3h[8:3],,,,,,2,,8h[16:3],,,7,,,6,,
,5h[16:9],,,,,,,,,1h[8:5],,2^5[2:1],,,,
{4}
,,7h[2:1],,
6h[2:1],,5h[2:1],,
7h[4:1],8h[4:1],1h[4:1],2,
1h[2:1]/3h[2:1],,,8^5[2:1],
,{16},,8,,8,,,,{12}1,,2h[12:5],
{12},3-8[12:5],,{16},,,,,,,,7,,,6,
5h[8:3],,,,,,6,,8h[16:3],,,1,,,3,,
{32},{16}5h[32:23],{32},{16},,,,,,,,,,{4}4^1[8:3],
,4^7[8:3],,,
12,23,34,
1^6[2:1],,1^4[2:1],
{8},8-5[2:1],,,
{4},,,,
,{32},{4},,2^7[2:1],
,,,,
{32},{4}6h[32:23],{32},{16},,,{4},5-1[2:1],
,,,4-7[2:1],
8h[32:31],,,{32},{16},,,

{1}
6-1[2:1],
{32},{16}8-5[32:15],,,{32},{4},,,{1}
2-7[2:1],
6-3[2:1],
{8}
5^2[8:3],,,7^4[8:3],,,,,
1^4[8:3],,,7^2[8:3],,,,,
3^8[8:3],,,5^2[8:3],,,,,
8^3[8:3],,,6^1[8:3],,,,,
2h[1:1],,,,,,,,
1h[4:3],,,,,,8b,8b,

{1},
E

MASTER

(147){1},
{6}1h[6:1],6h[6:1],{48}3h[48:7],,,,,,,5h[48:9],,,,,,,,,{6}1h[6:5],8h[3:2],
{4},,,18,
{16}
2h[16:3],,,5h[16:3],,,8h[8:3],,,,,,7h[16:3],,,3h[16:3],
,,5h[8:3],,,,,,,,,,,,,,
1-5[16:3],,,,2,,3,,,,4,,8-4[16:3]/5,,,,
7,,6,,,,5,,1-6[8:1]/4,,7-4[8:1],,,,,,
2-5[8:1],,,,3,,4,,,,7,,7-4[8:1]/8,,,,
6,,5,,,,4,,24,,,,68,,,,
2-7[8:1],,,7,,,6,,,,,,6-3[8:1],,,3,
,,4,,,,,,2^7[4:1],,,,,,,,
6,,,4h[16:3],,,3,,2,,,7,,,2^5[8:3]/6^1[8:3],,
,,,,,,,,,,,,18,,,,

1,2,1,,,,5,,2-7[8:1],,,,4,,,,
6,5,6,,,,4,5,4,5,4,,,,,,
1,2,1,,,,4,,7-2[8:1],,,,5,,,,
8,7,8,,,,1,,18,,8,,78,,1b,,
2,3,2,,,,5,,2^7[8:1],,,,4,,,,
6,5,6,,,,5,4,5,4,5,,,,,,
1h[4:1],,,,4,,5,,6,,,7,,,8,,
3h[2:1],,,,,,,,,,,,1,,,,

{4}
7h[2:1],6,8h[4:1],1h[4:1],
2h[1:1],3,1,8,
7h[1:1],8,6,5,
4h[2:1],5,3h[4:1],2h[4:1],
{8}
1h[8:3],,,2,3,4,5,6h[4:1],
,7,8h[4:1],,,,,,
{16}
1h[16:3],,,2h[16:3],,,3,,2h[16:3],,,1h[16:3],,,8h[8:1],,
7,,,8,1,,,,34,,,45,,,56,,
7h[2:1],,,,8,,,,1h[2:1],,,,2,,,,
3,,4,,5,,6,,7,8,1,2,3,4,5,6b,

2h[4:1],,,,,,3,,1-5[8:1],,,7-3[8:1],,,7,,
{12}4,,,1-4[8:1],,1,,,,8-5[8:1],,8,
{16}1h[8:3],,,,,,2,,2h[16:3],,,6h[16:3],,,5h[8:1],,
4h[4:1],,,,3,,4,5,4,,6,,7h[4:1],,6,,
2h[2:1],,,,,,,,4h[4:1],,,,5h[4:1],,,,
8h[2:1],,,,,,1,,1h[4:1],,,,2,,,,
1h[4:1],,,,4h[4:1],,,,5h[4:1],,,,8h[4:1],,,,
1-6[8:1],,8-3[8:1],,,,,,2^7[8:1],,6^3[8:1],,,,,,
8h[4:1],,,,,,1,,1-5[8:1],,,7-2[8:1],,,7,,
{12}3,,,3-6[8:1],,3,,,,8-4[8:1],,8,
{16}2h[8:3],,,,,,3,,4h[16:3],,,5h[16:3],,,6h[8:1],,
7h[4:1],,,,,,8,7,8,,1,,2,,1,,
1h[8:3],,,,,,5,,4,,,,45,,,,
3h[4:1],,,,2h[4:1],,,,1h[4:1],,,,2,,,1,
8,,,,7-3[4:1],,,,4,,,5,,,7,,
4h[1:1]/2,,,2,,,1,,8,,,7,,,7,,
5,,,4b,3h[4:1],,,,4h[4:1],,,,5h[4:1],,,,
7h[32:13],,,,,,{32},{16}8,,1,,,,2,,,,
2h[4:1],,,,3h[4:1],,,,2h[4:1],,,,3,,,4,
4h[4:3],,,,,,,,,,,,1-5[8:1],,,,
8-4[8:1],,,,,,1-4[8:1],,,,,,,,,{32},{16}

2h[4:5],,,,3,,,,5,,,,7,,,,
1,,,8,1,,,,,,,,8,,1,,
1-4[8:1],,,1,2h[2:1],,,,,,,,3,,4,,
8-5[8:1],,,8,7h[2:1],,,,,,,,6,,,,
3h[32:25],,,,,,{32},{16}8,8,8,,,,6h[4:1],,,,
5h[4:3],,,,,,1,1,1,,,,7h[4:1],,,,
2h[4:3],,,,,,5,5,5,,,,3h[4:1],,,,
1h[4:3],,,,,,7,7,7,,,,4,,,{32},{16}
1,2,1,,,,4,5,4,5,4,,,,,,
1h[2:1]/8h[2:1],,,,,,,,,,,,27,,1b/8b,,

{1},
E

名前:
コメント:

タグ:

+ タグ編集
  • タグ:

このサイトはreCAPTCHAによって保護されており、Googleの プライバシーポリシー利用規約 が適用されます。

最終更新:2014年02月18日 22:08