Love or Lies

BPM EASY BASIC ADVANCED EXPERT MASTER
128 2 5 6 9 11+

EASY


BASIC

(128.0){1},
{1}3,
{1}3,
{1}3,
{1}3,
{2}1,2,
{2}3,4,
{2}5,6,
{2}7,8,
{4}1,1,1,,
{4}8,8,8,,
{4}1,1,1,,
{1}4-7[2:1],
{4},8,8,8,
{4}7,6,5,,
{4},3,3,3,
{4}4,5,6,,
{4},8,8,8,
{4}1,2,3,,
{2}1,8,
{1}8b,
{1}2-5[2:1],,
{1}4-7[2:1],,
{1}7/8,
{1}1/2,
{2}3,4,
{2}6,5,
{1}7h[2:1],
{1}5h[2:1],
{1}3h[2:1],
{1}1-4[2:1],,
{1}5h[4:3],
{4},6,7,8,
{4}1,,,1b,
{4},7,8,2,
{4},2,1,7,
{4},7,8,2,
{4},3,4,6,
{4},6,5,3,
{4},3,4,6,
{4},7-2[2:1],,,{1},
{4},2,8,7,
{4},7,1,2,
{4},2,8,7,
{4},6,4,3,
{4},2h[2:1],,,
{4},2h[2:1],,,
{4},7,6,6,
{1}6b,
E

ADVANCED

(128.0){1},
{1}6,
{1}6,
{1}6,
{1}6,
{4}1,1,2,2,
{4}3,3,4,4,
{4}5,5,6,6,
{4}7,7,8,8,
{4}1,1/8,8,7/8,
{4}7,6/7,6,5/6,
{4}5,4/5,4,3/4,
{1}2-7[2:1],
{4},8,7,6,
{4}5,4,3,2,
{4},1,2,3,
{4}4,5,6,6b,
{4},8,7,6,
{4}5,6,7,7,
{1}2^7[2:1],,
{1}3-8[2:1],
{1}6-1[2:1],
{1}3^8[2:1],
{1}6^1[2:1],
{4}7h[4:3],6,,6,
{4}3h[4:3],2,,2,
{4}7h[4:3],8,,8,
{4}2h[4:3],1,,1,
{4}3/6,5,4,3,
{4}4,5,6,7,
{4}2/7,1,8,7,
{4}8,1,2,3,
{769},,{865}6h[673:503],,,,,,,,,,,,,,,,,,,,,,,,,,,,,,,,,,,,,,,,,,,,,,,,,,,,,,,,,,,,,,,,,,,,,,,,,,,,,,,,,,,,,,,,,,,,,,,,,,,,,,,,,,,,,,,,,,,,,,,,,,,,,,,,,,,,,,,,,,,,,,,,,,,,,,,,,,,,,,,,,,,,,,,,,,,,,,,,,,,,,,,,,,,,,,,,,,,,,,,,,,,,,,,,,,,,,,{4}5,4,3,
{4}2h[4:3],3,4,5,
{4}1,3,7,6,
{16}2/7,,,2/7,,,2b/7b,,,,,,1/8,,,,
{4}8,1/8,2,3,
{4}2,1/8,7,6,
{4}7,1/8,2,3,
{4}4,4/5,5,6,
{4}5,4,3,3b,
{4}4,5,6,6b,
{4}5,4,3,3b,
{4}2,7,8,1/8,
{4}1,1/8,7,6,
{4}7,1/8,2,3,
{4}2,1/8,7,6,
{4}5,4/5,4,3,
{4},5b/6b,2-5[4:1],,
{4},3b/4b,7-4[4:1],,
{4},7,6,7-2[2:1],,,,
E

EXPERT

(128.0){1},
{16}3,,3,,3,,,4,,,,,,,,,
{16}6,,6,,6,,,5,,,,,,,,,
{16}3,,3,,3,,,4,,,,,5,,5,,
{16}6,,6,,6,,,5,,,,,4,,4,,
{16}3,,4,,3,,,3,,,4,,5,,4,,
{16}6,,5,,6,,,6,,,5,,4,,5,,
{16}3,,4,,3,,4,3,,,4,,5,,4,,
{16}6,,5,,6,,5,6,,,5,,4,,5,,
{16}3,,3,5,,5,,,2,,2,4,,4,,,
{16}1,,1,3,,3,,,8,,8,2,,2,,,
{16}7,,7,1,,1,,,6,,6,8,,8,,,
{16}5,,,5,,,5-8[8:1],,,,,,,,,,
{8}1h[4:1],,2h[4:1],,3h[4:1],,4,8,
{8}4h[4:1],,5h[4:1],,6h[4:1],,7,3,
{8}8h[4:1],,7h[4:1],,6h[4:1],,5,1,
{8}5h[4:1],,4h[4:1],,3h[4:1],,2,6,
{8}2h[4:3],,3,,4,,5,1,
{8}5h[4:3],,4,,3,,2,6,
{8}7h[4:3],,6,,5,,4,8,
{16}3,,,3,,,3,,,3,,,3,,2,,
{8}1h[4:3],,,,,,7,6,
{8}5h[4:3],,,,,,4,3,
{4}2h[4:1],1h[4:1],8h[4:1],7h[4:1],
{8}6^3[4:1],,,,,,2,3,
{8}4h[4:3],,,,,,7,6,
{8}5h[4:3],,,,,,7,8,
{4}1h[4:1],7h[4:1],3h[4:1],5h[4:1],
{1}4h[2:1],
{16}8h[4:3],,,,6,,,6,,,,,,,,,
{16}4h[4:3],,,,2,,,2,,,,,,,,,
{4}1,2,3-6[4:1],,
{4}7-2[4:1],,,7h[1:1],
{4}6^3[4:1],,,2h[1:1],
{4}3^6[4:1],,,7h[2:1],
{4}8,3h[2:1],4,6h[8:5],
{16}5,,,5,,,5b,,,,7,,{721}8,,,,,,,,,,,,,,,,,,,,,,,,,,,,,,,,,,,,,,,,,,,,,,,,,,,,,,,,,,,,,,,,,,,,,,,,,,,,,,,,,,,,,,,,,,,,{817}1h[1202:673],,,,,,,,,,,,,,,,,,,,,,,,,,,,,,,,,,,,,,,,,,,,,,,,,,,,,,,,,,,,,,,,,,,,,,,,,,,,,,,,,,,,,,,,,,,,,,,,,,,,
{16},,,,2,,,2,,,2,,1,,8h[16:9],,
{16},,,,7,,,7,,,7,,6,,5h[16:9],,
{16},,,,3,,,3,,,2,,3,,4h[16:9],,
{16},,,,5,,,5,,,6,,5,,6h[16:9],,
{16},,,,4,,,4,,,3,,4,,3h[16:9],,
{16},,,,5,,,5,,,4,,5,,6h[16:9],,
{16},,,,4,,,4,,,5,,4,,3h[16:9],,
{16},,,,2,,,2,,,7,,8,,1,,
{16}2,,,,1,,,1/2,,,2,,1,,8,,
{16}7,,,,8,,,7/8,,,8,,7,,6,,
{16}5,,,,6,,,5/6,,,1,,2,,3,,
{16}4,,,,3,,,3/4,,,6,,5,,4,,
{16}3,,,,5,,,4b/5b,,,6,,5,,4,,
{16}3,,,,5,,,4b/5b,,,6,,5,,4,,
{16}3,,,,5,,,4b/5b,,,6,,5,,4,,
{1}3,
E

MASTER

(128){16}
3,,3,,3,,,8,,1,8,,2,,,,
2,,2,,2,,,8,,1,8,,3,,,,
6,,6,,6,,,1,,8,1,,7,,,,
7,,7,,7,,,1,,8,1,,6,,,,
3,,1,,12,,,1,,7,1,,18,,,,
6,,8,,87,,,8,,2,8,,81,,,,
3,,2,,45,,,2,,4,2,,36,,,,
6,,7,,54,,,7,,5,7,,63,,,,

1,,1,2,,2,1b,,4,,4,5,,5,4b,,
2,,2,3,,3,2b,,7,,7,6,,6,7b,,
5,,5,6,,6,5b,,4,,4,3,,3,4b,,
8,,,17,,,68,,,,,8,1b,,,,

{4}1h[4:1],5h[4:1],3h[2:1],2,
7h[4:1],8h[4:1],{16}2,,,8,,27,,,
{4}5h[4:1],1h[4:1],7h[2:1],6,
3h[4:1],{16}2h[4:1],,3,,4,,8,7,,18,,,
{4}8h[4:1],4h[4:1],6h[2:1],7,
2h[4:1],1h[4:1],{16}7,,,1,,72,,,
6,,,,7,,18,,7,6,,7,,,1,,
26,,4,8b,,5,1b,,,,,,4-8[2:1],,,,

,,,,1,,,1,,,,,2-6[2:1],,,,
,,,,7,,,7,{4},6h[4:1],
5h[2:1],4,3^8[8:1],5^8[2:1],
,,,{8}3,2,
5^2[2:1]/1h[2:1],,,,,,8,7,
{4}2^7[2:1]/6h[2:1],,,5,
2h[4:1]/8h[2:1],,1h[4:1],7h[4:3],
3h[2:1],,,7-2[4:3],
,,,8-5[4:3],
,,,2-5[4:1],
,4-7[4:1],,8^3[2:1],
,,,{16}6,,6,,
4h[1:1],,,,3,,,3,,,,,5,,6,,
7h[4:3],,,,8,,,8,,,,,1,,,,
2h[2:1],,,,3,,4,,8h[2:1],,,,1,,1,,
23,,,45,,,67,,,,28,,3h[4:1]/1,,2,,

1,,8,,17,,,28,,,17,,6h[4:1]/8,,7,,
8,,1,,82,,,71,,,34,,4h[4:1]/5,,6,,
7,,6,,57,,,46,,,56,,5h[4:1]/4,,3,,
2,,3,,24,,,35,,,8,,7-3[4:1],,6,,
2,,1,,2,,,3,,,1,,2-6[4:1],,3,,
7,,8,,7,,,6,,,8,,1-4[8:1],,1,,
6-3[8:1],,,,,,,,,,4,,5-8[8:1],,5,,
2-7[8:1],,,,,,,,,,2b/8,,3h[4:1]/1b,,2b,,
1,,8,,17,,2,8,,7,1,,6h[4:1]/8,,7b,,
8,,1,,82,,7,1,,3,4,,4h[4:1]/5,,6b,,
7,,6,,57,,4,6,,6,5,,5h[4:1]/4,,3b,,
2,,3,,24,,5,3,,,1^6[8:3]/2,,3,,,,
5h[2:1],,,,,,,,,,5^2[8:3]/6,,7,,,,
1h[2:1],,,,,,,,,,8-4[8:3]/1,,2,,,,
6-2[2:1],,,,,,,,,,,,,,,,
2,1,,5,6,,2,1,,8,7,,18,,,,

{1},,,
E

名前:
コメント:

タグ:

+ タグ編集
  • タグ:

このサイトはreCAPTCHAによって保護されており、Googleの プライバシーポリシー利用規約 が適用されます。

最終更新:2022年06月25日 18:08