美しく燃える森

BPM EASY BASIC ADVANCED EXPERT MASTER
140 2 6 6 9 10+

EASY


BASIC

(140.06){1},,
{1}6h[2:1],
{1}4h[2:1],
{1}2h[2:1],
{1}8h[2:1],
{1}6h[2:1],
{1}8h[2:1],
{2}3/4,4/5,
{4}1/2,1/2,,1,
{4},8,,1,
{4}7/8,7/8,,8,
{4},1,,8,
{4}3/4,3/4,,4,
{4},5,,7,
{4}5/6,5/6,,2,
{4},1h[2:1],,,
{4},1,,1/8,
{4},8,,1/8,
{4},1,,2/7,
{4},8,,2/7,
{4},6,,3/6,
{4},4,,4/5,
{4},5,,5/6,
{4},6,,7,
{4},7-3[4:1],,,
{4},2,,1/2,
{4},7,,7/8,
{4},2,,1/2,
{4},1,,2/8,
{4},8,,1/7,
{4},1,,2/4,
{4},2-6[4:1],,,
{4}7/8,7/8,,8,
{4},1,,2,
{4}1/2,1/2,,2,
{4},3,4,5,
{4}6,7,,7,
{4},2,,2,
{4},3,,3,
{4}1,1,8b,1/8,
{4}1/2,1/2,,1,
{4},8,,7,
{4}7/8,7/8,,7,
{4},7,,8-4[4:1],
{4},,,1-5[4:1],
{4},,,6,
{4},7,,7/8,
{4},7,8,1b,
{2}2h[2:3],{1},,
E

ADVANCED

(140.06){1},
{2}4h[2:1],3,
{2}2h[2:1],1,
{2}8h[2:1],7,
{2}6h[2:1],5,
{2}4h[2:1],3,
{2}2h[2:1],1,
{2}2/6,3/7,
{4}1/7,8,2/7,1,
{8}2,,1,1,,3,,1/3,
{4},4/6,,3/5,
{8}7,,8,8,,6,,6/8,
{4},3/7,,2/6,
{8}6,,5,5,,4,,4/5,
{4},1/7,,2/8,
{8}3,,4,4,,5,,4/5,
{4},1/8,,2b/7,
{4}2/8,3,2,3,
{4}3/6,5,6,5,
{4}1/5,8,1,8,
{4}3/8,4,3,4,
{4}4/7,6,7,6,
{4}2/6,1,2,1,
{4}1/6,7,6,7,
{4}2/7,1,2,1,
{1}8-4[2:1],
{4}5,4,5,4,
{4}6,6,8,8,
{4}3,3,1,1,
{1}7^2[2:1],
{1}1-5[2:1],
{4}3,4,5,6,
{1}6^3[2:1],
{8}7h[4:1],,1,1,,6/8,,7,
{4},3/7,,2/6,
{8}2h[4:1],,8,8,,1/3,,2,
{8},,2/6,,1,2,{817}1,,,,,,,,,,,,,,,,,,,,,,,,,,,,,,,,,,,,,,,,,,,,,,,,,,,,,,,,,,,,,,,,,,,,,,,,,,,,,,,,,,,,,,,,,,,,,,,,,,,,{721}3h[1250:1097],,,,,,,,,,,,,,,,,,,,,,,,,,,,,,,,,,,,,,,,,,,,,,,,,,,,,,,,,,,,,,,,,,,,,,,,,,,,,,,,,,,,,,,,,,,,
{4},5,6,5,
{4}6h[4:3],4,3,4,
{8}2,2,,,1/7,,2/8,,
{1}3-8[4:1],
{8}7h[4:1],,1,1,,6/8,,7,
{4},4/8,,3/7,
{8}2h[4:1],,8,8,,1/3,,2,
{8},,1/5,,8,7,8,7h[8:7],
{4},1,2,1,
{4}1h[4:3],8,7,8,
{1}3-8[4:1],
{4}7,8,1,2,
{2}2h[2:3],{1},,
E

EXPERT

(140.06){1},
{8}1h[4:1],,,1h[8:3]/2h[8:3],,,,,
{8}4h[4:1],,,3h[8:3]/4h[8:3],,,,,
{8}8h[4:1],,,1h[8:3]/8h[8:3],,,,,
{8}4h[4:1],,,4h[8:3]/5h[8:3],,,,,
{8}8h[4:1],,,7h[8:3]/8h[8:3],,,,,
{8}5h[4:1],,,5h[8:3]/6h[8:3],,,,,
{8}1h[4:1],,,1h[8:3]/8h[8:3],,,,,
{4}2,3,7,6,
{8}1,,3,6,,2/8,,1/7,
{8},6,,6,,6,,6,
{8}8,,6,3,,1/7,,2/8,
{8},3,,3,,3,,3,
{8}8,,4,3,,2/5,,4/7,
{8},6,,6,,6,,6,
{8}1,,5,6,,4/7,,2/5,
{8},3/8,,1/6,,4/7,,2/5,
{8},4,,3/4,,4,,3/4,
{8},5,,5/6,,5,,5/6,
{8},2,,2/4,,2,,2/4,
{8},7,,5/7,,7,,5/7,
{8},4,,3/4,,2,,2/3,
{8},5,,5/6,,7,,6/7,
{8},3,,3/4,,5,,4/5,
{8},6,,5/6,,4,,4/5,
{8},3^6[4:1],,,,2^7[4:1],,,
{8},6,,5,,4,,3,
{8},6^3[4:1],,,,7^2[4:1],,,
{8},3,,4,,5,,6,
{8},1,,1/5,,2,,2/6,
{8},3,,3/7,,4,,4/8,
{8},7,,3/7,,6,,2/6,
{8},5,,1/5,,4/8,,1/5,
{8}2,,6,5,,2/8h[4:1],,7-4[8:3],{1},
{8}7,,3,4,,7/1h[4:1],,2-5[8:3],
{8},,,,,,6,6h[2:1],
{8},,5,5h[2:1],,,4,4h[2:1],
{8},,3,3h[8:3],,,2^7[4:1],,
{8},,,,,8,1,8,
{8},5/6,,7/8,,3/4,,1/2,
{8}8,,3,2,,1b/5b,,3h[8:7]/7h[8:7],{1},
{8}1,,6,7,,4b/8b,,2h[8:3]/6h[8:3],
{8},,,,4,,3,2h[2:1],
{8},,4,5h[2:1],,,4,3h[2:1],
{8},,6,6h[2:1],,,3,4h[2:1],
{8},,6,5h[2:1],,,8,1h[8:5],
{4},5,5h[4:5],{1}3-7[4:3],,
E

MASTER

(140){8}
8,,5,5,,6,6,7,
1,,4,4,,3,3,2,
6,,7,8,,6,5,6,
3,,1,3,,1,2,1,
7,,1,2,,27,36,45,
3,,5,6,,36,27,18,
27,,4,5,,16,{16}8,7,8,7,{8}
8,1,2,3,4,56,57,8b/5,

1,,7,8,,28,,17,
6h[4:1],,4,4,3h[4:1],,5,5,
8,,2,1,,71,,82,
3h[4:1],,5,5,6h[4:1],,4,4,
26,,1,7,,37,,15,
6h[4:1],,2,1,3h[4:1],,7,8,
73,,8,2,,62,,84,
5,3,{16}2,1,{8}2,,8b/6,,,

,28,,13,,35,,24,
,17,,68,,46,,57,
,36,,18,,45,,27,
,48,,15,,37,,26,
,13,4,,,68,5,,
,24,1,,,57,8,,
,56,78,,,34,12,,
,16,47,,,38,25,,
,67,8,5,,23,1,4,
,1,67,4,,8,32,5,
,28,1,28,,17,8,17,
,24,3,46,,57,6,35,
{16},,47,,5,6,5,,,,52,,4,3,4,,
,,56,,7,8,7,,,,34,,2,1,2,,
7,,68,,1,8,1,,2,,13,,8,1,8,,
,,34,,56,,,,,,27,,1,8,1b,,

{8}
37,,4,2,,26,,15,
,28,17,68,,35,,14,
62,,5,7,,73,,84,
,5,6,7h[8:3],3,4,3,2h[4:1],
6h[4:3],,1,2,3h[4:1],,,4h[4:1],
5h[4:3],,,,3,,1,,
2,2,,5,6,47,3,2,
{16}3,,2,,1,8,,,5,,6,,7,1,7,,

{8}
26,,5,7,,37,,48,
,71,82,31,,64,,85,
37,,4,2,,26,,15,
,7,5,6h[8:3],4,2,3,1h[4:1],
8h[4:3],,2,3h[4:1],,,4,5h[8:5],
7h[4:3],,,,,,6,5h[4:1],
,,7,6h[4:1],4,3,28,7h[4:1],
,,{16}1,8,1,8,{8}1,28,13,24,
{1}5^8[4:3]/3b,

,,,
E

名前:
コメント:

タグ:

+ タグ編集
  • タグ:

このサイトはreCAPTCHAによって保護されており、Googleの プライバシーポリシー利用規約 が適用されます。

最終更新:2022年06月25日 18:09