come again

BPM EASY BASIC ADVANCED EXPERT MASTER
130 2 5 6 10 12

EASY


BASIC

(130.0){1},,
{4}3,,,1,
{2}1,8,
{1}7,
{1}6,
{4}6,,,8,
{2}8,1,
{2}2,1,
{1}1/2,
{4}3,,,4,
{2}4,5,
{1}6,
{1}7/8,
{4}1,,,2,
{1}2-6[4:1],,
{1}7,
{4}6/8,,,7,
{2}7,8,
{2}1,2,
{1}2,
{4}1/3,,,2,
{2}2,1,
{2}8,7,
{1}7h[2:1],
{1}2h[2:1],
{1}8h[2:1],
{2}1,1,
{2}1,2,
{2}8,7,
{1}8h[4:3],
{2}1,2b,
{4}2,3,2,2,
{4}7,6,7,7,
{4}6,5,4,3,
{1}3h[2:1],
{4}6,5,6,6,
{4}3,4,3,3,
{4}4,5,6,7,
{1}7h[2:1],
{4}7,8,1,1,
{4}2,1,8,8,
{4}7,6,5,4,
{1}3-6[4:1],
{4},,7,7,
{4}6,5,4,4,
{4}3,2,1,8,
{2}7-2[4:1],,
E

ADVANCED

(130.0){1},
{1}6h[1:1],
{1}2h[1:1],
{1}1h[1:1],
{4}8h[4:3],,,2^7[2:1],{1},
{1}6,
{2}7,8,
{4}8h[2:1],,,1-5[2:1],{1},,
{1}6-2[2:1],,
{1}3h[4:3],
{1}2h[4:3],
{1}1h[4:3],
{1}8h[4:3],
{2}7,8,
{2}7,8,
{2}1,2,
{4}3,,2,2,
{2}4h[1:1],6,
{2}5h[1:1],3,
{2}6h[2:1],7h[2:1],
{4}8h[2:1],,,8b,
{1}6^1[2:1],
{1}3^8[2:1],
{2},2,
{2}1,7,
{1}6-1[2:1],
{1}3-8[2:1],
{2},2,
{4}1,,2,2,
{4}1,1/3,1,1,
{4}8,6/8,8,8,
{4}6,5,4,3,
{4}2h[4:3],1,8,1,
{4}7,6/7,6,6,
{4}2,2/3,3,3,
{4}3,4,5,6,
{4}7h[2:1],8,8,,
{4}2,2h[2:1],8,8,
{4}7,7h[2:1],1,1,
{4}6,5,4,3,
{4}2h[4:3],1,8,1,
{4}5,4/6,3,3,
{4}2,1/3,8,8,
{4}6,6h[2:1],1,2,
{4}3h[2:1],2,2b,
E

EXPERT

(130.0){1},
{2}1h[2:1],5h[2:1],
{2}3h[2:1],1h[2:1],
{1}5h[1:1],
{1}4^1[2:1],
{2}8h[2:1],4h[2:1],
{2}6h[2:1],8h[2:1],
{1}4h[1:1],
{1}5^8[2:1],
{2}3h[4:1]/4h[2:1],2h[4:1],
{4}5h[2:1]/6h[4:1],,7h[4:1],8,
{2}4h[2:1],3h[2:1],
{4}2h[2:1],6,7h[4:1],3,
{2}5h[2:1]/6h[4:1],7h[4:1],
{4}3h[4:1]/4h[2:1],,2h[4:1],1,
{2}5h[2:1],6h[2:1],
{4}7h[2:1],3,2h[4:1],6,
{8}8^3[4:1],,,,4,,,1,
{2}1^6[4:1],5,
{8}1,2,1h[4:1],,8,7,8h[4:1],,
{8}3,,4,5,6h[4:1],,,,
{8}1^6[4:1],,,,5,,,8,
{8}8^3[4:1],,,,4,,,5,
{8}5-8[4:1],,,,,,,1,
{4}1-4[4:1],,,5,
{4}4h[4:1],7h[4:1],6h[4:1],1h[4:1],
{4}2h[4:1],6h[4:1],5h[4:1],3h[4:1],
{2}4h[2:1],5,
{16}1h[16:3],,,2,,,2,,8h[16:3],,,7,,,7,,
{4}5h[4:1],2h[4:1],3h[4:1],8h[4:1],
{4}7h[4:1],3h[4:1],4h[4:1],6h[4:1],
{2}5h[2:1],4,
{16}7/8,,,2,,,2,,1/2,,,,7,,,,
{16}8,,,,7/8,,,1,8,,,,7/8,,8,,
{16}1,,,,1/2,,,8,1,,,,1/2,,1,,
{8}6,,5/6,,3,,3/4,5,
{2}5-1[4:1],8-4[4:1],
{16}3,,,,3/4,,,8,1,,,,3/4,,4,,
{16}6,,,,5/6,,,1,8,,,,5/6,,5,,
{8}3,,3/4,,6,,5/6,2,
{1}2^7[4:1],
{16}1/2,,,,7/8,,,1,8,,,,1/2,,1,,
{16}7/8,,,,1/2,,,8,1,,,,7/8,,8,,
{16}5,,,,1/8,,,3,4,,,,1/8,,,6,
{2}5-1[4:1],8-4[4:1],
{16}5,,,,3/4,,,5,4,,,5,6,,3,,
{16}4,,,,5/6,,,4,5,,,4,3,,6,,
{4}4h[2:1],3,5h[2:1],6,
{8}1-4[4:1],,,5b,5b,
E

MASTER

(130){4}
4h[2:1],,8h[2:1],,
1h[2:1],,5h[2:1],,
6h[2:1],,7h[2:1],,
3,1,7h[4:1],5h[4:1],
{16}
1h[2:1],,,2,,,,,5h[2:1],,,6,,,,,
4h[8:3],,,3,,,,,15,,,48,,,26,,
1h[2:1],,,,,,,,5h[2:1],,,,,,,,
4h[4:1],,,,3,,,,8h[4:1],,7,,6b,,,,

1^6[2:1],,,2,,,3h[8:3],,,,,,,,,,
5^2[2:1],,,7,,,8h[8:3],,,,,,,,,,
1,,,2,,,1,,8,,,7,,,6,,
4,,,3,,,2,,17,,,,27,,,,
2-5[2:1],,,4,,,3h[8:3],,,,,,,,,,
7-4[2:1],,,5,,,6h[8:3],,,,,,,,,,
{2}
7^2[2:1],3-6[4:1],
3^6[2:1],7-2[4:1],

{16}
7h[4:3],,,,,,,,6,,,,,,8,,
1,,,2,,,3,,,,,,8,,7,,
6h[2:1],,,,5,,4,,3h[2:1],,,,4,,5,,
4,,,12,,,18,,18,,,,67,,,,
3h[4:3]/4,,,5,,,6h[8:3],,,,,,,,,,
6h[4:3]/5,,,4,,,3h[8:3],,,,,,,,,,
{4}
3^6[2:1],,2h[2:1],,
1,8-3[4:1],4-7[4:1],,

8h[4:3],7h[4:3],,,
6h[4:3],5h[4:3],,,
4h[2:1],,3h[2:1],,
{16}2h[16:3],,,1,,,8,,{4}36,27,
4h[4:3],3h[4:3],,,
2h[4:3],1h[4:3],,,
8h[2:1],,7h[8:3],{16},,6,,
45,,,25,,,38,,27,,,,18,,,,

18,,7,,6^3[4:1],,,,2,,,1,,,8,,
2,,3,,3^6[4:1],,,,7,,,8,,,1,,
1,,2,,18,,,,5,,6,,45,,,,
38,,,27,,,16,,25,,,36,,,47,,
81,,2,,3^6[4:1],,,,7,,,8,,,1,,
6,,7,,6^3[4:1],,,,2,,,1,,,8,,
8,,7,,81,,,,4,,3,,54,,,,
18,,,67,,,34,,56,,,,18,,,,

27,,8,,1^6[4:1],,,,2,,,3,,,4,,
2,,1,,8^3[4:1],,,,7,,,6,,,8,,
8,,7,,18,,,,5,,6,,45,,,,
38,,,27,,,16,,25,,,36,,,47,,
7h[4:1],,,,3h[16:7],,,,2,,,2b,,8,1,,
2,,3,,4h[16:7],,,,5,,,5b,,,2,,
6h[4:1],,7,,8,,,,4h[4:1],,3,,2,,,,
18,,,26,,,37,,45,,,,,,,,

{1},,,,
E

名前:
コメント:

タグ:

+ タグ編集
  • タグ:

このサイトはreCAPTCHAによって保護されており、Googleの プライバシーポリシー利用規約 が適用されます。

最終更新:2022年06月25日 18:10