System "Z"

BPM EASY BASIC ADVANCED EXPERT MASTER Re:MASTER
147 3 5 8 12 14 14

EASY


BASIC


ADVANCED


EXPERT

(147){16}
3h[8:1],,,,3h[8:1],,,,3,,3,,3,4,5,6-2[4:1],
,,,,,,,,,,,,,,,1-6[4:1],
,,,,,,,2-5[4:1],,,,,,,,3-7[4:1],
,,,,,,,,,,,,,,,8-5[4:1],
,,,,,,,1-4[4:1],,,,,,,,,
7h[4:3],,1^6[8:3],1,,,,,,,,,,,,,
6,6h[16:3],,,2,2h[16:3],,,1,5,7,3,,,,,
4,,,3,,,3,,,5,,,6,,6,,
3,3,,,6,6,,,1h[16:3],,,7,2,8,1,7,
2h[4:3],,8^3[8:3],8,,,,,,,,,,,,,
3,3h[16:3],,,7,7h[16:3],,,8,4,2,6,,,,,
2,,,1,,,7,,,8,,,2,,7,,
2,3,4,,6h[16:5],5,,5,,5,,5,6,7,8,,
1h[16:3],,2,2,,6,5,6,3,4,3,,8h[16:3],,7,7,
,3,4,3,6,5,6,4,5,3,4,3,,67,,,
,23,,,8-4[8:1]/5-1[8:1],,,,,,,,,,,,
{1},

{16}
8,18,,,2,12,,,7-2[8:1],,,,,,,4b,
,,,,,23,,,56,,,18,,,,,
,67,,,12,,,45,,,,,6,5,6,,
3,4,3,,5,4,5,,3,4,,6,5,4,3,,
,2,3,4,5,6,7,8,1-5[8:1],,,,,,,8,
8-4[8:1],,,,,,,,,7,6,5,4,3,2,1,
,8,,,12,,,67,,,34,,,45,,1,
1-6[8:1],,,,,,,7-4[8:1],,,,,,,,,

47,,,,,5,6,7,,,,,,2,3,4,
,,,,,7,8,1,,,,,,4,5,6,
,,,,,1,2,3,,,,,,6,7,8,
,7,8,,7,8,,4,,3,4,,3,4,,,
25,,,,,7,5,3,,,,,,4,2,8,
,,,,,1,7,5,,,,,,6,4,2,
,,,,,3,1,7,,,,,,8,6,4,
,6,4,,6,4,,8,,2,8,,2,8,,,

3^8[8:1]/6,,,,6,,,,68,,,1,6,,2,,
6^1[8:1]/3,,,,3,,,,31,,,8,3,,7,,
3-7[8:1]/6,,,,6,,,,16,,,5,6,,2^7[8:1],,
3,,4,,5,,6^1[8:1],,,,,,4,,,,
2^5[8:1]/7,,,,7,,,,75,,,4,7,,3,,
7^4[8:1]/2,,,,2,,,,2,,5,,2,1,,,
58,,3,,6,,14,,,,27,,5,,1,,
4,,8,,36,,,,,,1b,,,,,,
{1},{16}
2,1,2,,7,8,7,,{12}3,1,5,6,8,4,

{16}
2,2,,,7,7,,,6h[16:3],,,7,2,8,1,7,
2h[4:3],,8^3[8:3],8,,,,,,,,,,,,,
3,3h[16:3],,,7,7h[16:3],,,8,4,2,6,,,,,
5,,,6,,,6,,,4,,,3,,3,,
6,6,,,3,3,,,8h[16:3],,,2,7,1,8,2,
7h[4:3],,1^6[8:3],1,,,,,,,,,,,,,
6,6h[16:3],,,2,2h[16:3],,,1,5,7,3,,,,,
7,6,5,,3h[16:5],4,,4,,4,,4,3,2,1,,
8h[16:3],,7,7,,3,4,3,6,5,6,,1h[16:3],,2,2,
,6,5,6,3,4,3,5,4,6,5,6,,32,,,
,76,,,1-5[8:1]/4-8[8:1],,,,,,,,,,,,
{1},{16}

38,,,,1,8,7,6,,,,,4,3,2,1,
,,,,7,6,5,4,,,,,2,1,8,7,
,,,,5,4,3,2,,,,,8,7,6,5,
,5,6,,6,7,,4,,4,3,,3,2,,,
16,,,,8,2,4,6b,,,,,3,5,7,1b,
,,,,6,8,2,4b,,,,,1,3,5,7b,
,,,,4,6,8,2b,,,,,7,1,3,5,
,5,3,,3,1,,4,,4,6,,6,8,,,
{1},{16}
1,2,3,4,,7,3,5,2,6,4,,8,7,6,5,
,2,6,4,7,3,5,1,6,2,8,4,,2-5[16:1]/3-8[16:1],,,
,,,,7-4[16:1]/6-1[16:1],,,,,,,,,,,,

{1},
E

MASTER

(147){16}
3,,5,5,6,,4,4,3,,5,5,6,4,4,3-7[8:1],
,,,,1,2,3,4,5,6,,,,,,6-2[8:1],
,,,,5,6,7,8-4[8:1],,,,,7,8,1,2-6[8:1],
,,,,4,3,2,1,,,,,,,,,
7,3,5,5,2,6,4,4,7,1,8,8,2,1^6[16:3],8^5[16:3],7^4[16:3],
{1},{16}
15,48,,,48,15,,,1^4[16:1]/5^8[16:1],,,15,,,,,
5,,3,4,,6,,5,,2,3,2,6,7,6,,
2,1,7,,7,8,1,,2,8,1,1,7,8^3[16:3],1^4[16:3],2^5[16:3],
{1},{16}
84,51,,,51,84,,,8^5[16:1]/4^1[16:1],,,84,,,,,
1,,7,8,,2,,1,,6,7,6,2,3,2,,
8,1,4,5,7,3,,15,,48,,15,2,3,4,5,
6-2[8:1],,6,6,,3,4,5,7,6,5,4,3-7[8:1],,3,3,
,1,2,3,8,7,6,2,3,4,5,6,7-4[16:1],7,,,
5-2[16:1],5,,,3-8[16:1],,,1,,,,8,1,2,8,7,
2,3,7,6,3,4,6,5,4-8[16:1],,,1b,,,,,

,1-6[8:1],,,,7-4[8:1],,,5-2[8:1],,,,1-4[8:1],,,8b,
,,,,,8-3[8:1],,,7-3[8:1],,,4-7[8:1],,,,,
,1-6[8:1],,,2-6[8:1],,,5-2[8:1],,,,,7,6,7,6,
7,8,7,,2,3,2,,3,2,,6,7,6,5,,
,7,6,5,4,3,2,1,8h[16:3],,,7,6,,,8,
1h[16:3],,,2,3,2,1,8,,7,8,2,1,8,7,58,
,14,,,2-7[8:1]/3-6[8:1],,,23,,,,,,8,,8^5[8:3],
,,,6^3[8:3],,,,4^1[16:5],,,1b,,,,,,

8,,,,,1-5[8:1],5,1h[8:3],,,,,,8-4[8:1],4,8h[8:3],
,,,,,3-7[8:1],7,3h[8:3],,,,,,6-2[8:1],2,6h[8:3],
,,,,,4-8[8:1],8,4h[8:3],,,,,,2,2,1^6[8:1],
,3,3,,4,4,5,2^5[8:1],,1,1,,7,7,,,
1,,,,,5-1[16:1],1-4[16:1],5h[8:3],,,,,,4-1[16:1],1-5[16:1],4h[8:3],
,,,,,6-1[16:1],1-4[16:1],6h[8:3],,,,,,3-8[16:1],8-5[16:1],3h[8:3],
,,,,,7-4[16:1],4-1[16:1],7h[8:3],,,,,,8,8,8^3[8:1],
,6,6,,7,7,8,7^4[8:1],,1,1,,2,2,,,

1^4[8:1]/8h[4:1],,,,1-5[8:1],,,,1-4[8:1]/7,,,8,1-6[8:1],,7,,
1^4[8:1]/7h[4:1],,,,1-5[8:1],,,,1-4[8:1]/8,,,7,1-6[8:1],,8,,
1^4[8:1]/8h[4:1],,,,1-5[8:1],,,,1-4[8:1]/7,,,8,1-6[4:1],,7,,
6^3[8:1],,3-8[4:1],,,,8-5[8:1],,,,,,1b,,,,
8^5[8:1]/1h[4:1],,,,8-4[8:1],,,,8-5[8:1]/2,,,1,8-3[8:1],,2,,
8^5[8:1]/2h[4:1],,,,8-4[8:1],,,,8-5[8:1]/1,,,,1b,,,,
2-6[8:1],,6-2[8:1],,2^7[8:1],,7^4[8:1],,,,,,7-3[8:1],,3-7[8:1],,
7^2[8:1],,2^5[8:1],,5-1[8:1],,,,,,8b,,,,,,
1,8,7,6,8,1,2,3,7,6,5,4,2,3,4,,
{24}6,5,6,5,,,3,4,3,4,,,8,7,6,1,2,3,7,6,5,2,3,4,

{16}
6,57,,,3,24,,,1,2,8,7,2,1^6[16:3],8^5[16:3],7^4[16:3],
{1},{16}
48,26,,,51,73,,,8^3[16:1]/4^7[16:1],,,48,,,,,
1,,7,8,,2,,1,,6,7,6,2,3,2,,
7,8,2,,2,1,7,,8,8,1,2,7,8^3[16:3],1^4[16:3],2^5[16:3],
{1},{16}
51,73,,,48,26,,,1^6[16:1]/5^2[16:1],,,51,,,,,
1,8,5,4,2,6,,48,,15,,48,7,6,5,4,
3-7[8:1],,3,3,,6,5,4,2,3,4,5,6-2[8:1],,6,6,
,8,7,6,1,2,3,7,6,5,3,4,2-5[16:1],2,,,
4-7[16:1],4,,,6-1[16:1],,,8,,,,,,,,,
{24}6,5,7,5,6,4,6,5,6,{16}3,24,,6,57,,{24}4,5,4,{16}36,,

1,,,,,1-6[16:1]/5,6-3[16:1]/2,37,,,,,,8-3[16:1]/4,3-6[16:1]/7,62,
,,,,,5-2[16:1]/1,2-7[16:1]/6,73,,,,,,4-7[16:1]/8,7-2[16:1]/3,26,
,,,,,1-6[16:1]/5,6-2[16:1]/2,37,,,,,,48,37,26,
,37,37,,6,5,4,3,,26,26,,3,4,5,6,
7,,,,,8-3[16:1]/4,3-8[16:1]/7,62,,,,,,1-6[16:1]/5,6-1[16:1]/2,37,
,,,,,4-7[16:1]/8,7-4[16:1]/3,26,,,,,,5-2[16:1]/1,2-5[16:1]/6,73,
,,,,,8-3[16:1]/4-7[16:1],7-4[16:1]/3-8[16:1],26,,,,,,51,62,73,
,62,62,,3,4,5,6,,7^4[16:1]/3^8[16:1],73,,,,,,
3,4,3,,6^3[8:1],6,,6,,,,,7,8,7,6,
5,,34,34,,7,8,1,2,1,2,3,4,,56,56,
,1,7,5,8,2,4,1,7,5,8,2,,2-7[16:1],,,
,6-2[16:1],,,3-6[16:1],,,,,,,,,,,,

{1},
E

Re:MASTER

(147)
{16}3h[4:1],,8,7,6h[4:1],,1,2,3h[4:1],,2,1,8,7,6,5<4[2:1],
,,,,2,3,4,5,,,,,,,,,
1/5,,,,3,1,2,8,1,7,8,8,6,8,7,1,
8,2,1,1,2,4,3,5,4,6,5,5,6,4,5,3,
5,5,4,4,6,6,3,3,7,7,2,2,1<1[2:1],8<8[2:1],7<7[2:1],6>6[2:1],
{1}5>5[2:1],
{16},2-7[16:1],,,,6-2[16:1],,,3-6[16:1],,,,,,,,
3h[4:1],,8,7,6h[4:1],,1,2,3h[4:1],,8,7,6h[8:1],,1,,
7,7,1,6,2,2,8,3,7,7,2,2,8>8[2:1],1>1[2:1],2>2[2:1],3<3[2:1],
{1}4<4[2:1],
{16},2-7[16:1],,,,6-2[16:1],,,3-6[16:1],,,,,,,,
5h[4:1],,2,3,4h[4:1],,8,7,6h[4:1],,1,2,3h[8:1],,7,,
1,8,1,8,1,2/6,,2/6,,1/5,,4/8,7z3[16:3],6,5,4,
3,,,,,2,1,8,7z3[16:3],6,5,4,3,,,,
,1,2,3,5,6,7,8,1,2-7[16:1],3,4,,6-2[16:1],,,
,3-6[16:1],,,7z3[4:1],,,,,,,,,,,,
{24}1,2,3,8,7,6,2,3,4,7,6,5,4-8[16:1],,,1b,,,,,,,,,
{16}7,7-4[16:1],,,3,3-8[16:1],,,7q1[4:1],,,,2,,,2b,
,,,,4,4-1[16:1],,,5-8[16:1],,,2>5[8:1],,,,,
,7,,,8z4[8:1],,,3,,,,,2,2,8,8,
2,1,2,,7,8,7,,1,1,,8,2,2,2/1,,
,6,8,7,3,1,2,8-4[8:1],1,,,8,,,,8-5[8:1],
2,,,8,4,3,2,1,,7,2,8,3,1,4,5/8,
,1/4,,,2-7[8:1]/3-6[8:1],,,2/3,,,,,,2<8[8:1],,8<4[4:1],
,,,4>8[4:1],,,,8<4[4:1],,,4b,,,,,,
2,,,,,7z3[8:1],3,7,,,,,,4z8[8:1],8,4,
,,,,,7z3[8:1],3,7,,,,,,2z6[8:1],6,2,
,,,,,7z3[8:1],3,7,,,,,,2,2,5-8[8:1],
,3,3,,2,2,,4-1[8:1],,6,6,,7,7,,,
2,,,,,7z3[8:1],3,3,,,,,,4z8[8:1],8,8,
,,,,,7z3[8:1],3,3,,,,,,2z6[8:1],6,6,
,,,,,7z3[8:1],3,3,,,,,,2,2,5p8[8:1],
,3,3,,2,2,,4q1[8:1],,6,6,,7,7,,,
{4}3>8[8:1]/7<4[8:1],3q8[8:1]/7q4[8:1],3/7,,
4>1[8:1]/8<5[8:1],4pp7[4:1]/8pp3[4:1],4/8,,
4-8[8:1]/8-4[8:1],4w8[4:1]/8,4,,
{8}7z3[4:1],7,3z7[4:1],3,,,5b,,
{4}2>5[8:1]/6<1[8:1],2p5[8:1]/6p1[8:1],2/6,2/6,
1>4[8:1]/5<8[8:1],1p4[8:1]/5p8[8:1],1/5,1/5,
{8}7-1[8:1],1-5[8:1],5-3[8:1],3,,1,2/6,3/7,
8-2[8:1],2-6[8:1],6-4[8:1],,,1b,,,
{16}2,8,2,8,1,7,1,7,2,1,2,,7,8,7,,
{24}1,2,3,4,,,7,6,5,4,,,2,1,2,1,2,1,2,1,2,1,2,1,
{16}2,3/8,,,8,1/7,,,1/8,2/7,,8>8[2:1],1>1[2:1],2>2[2:1],3<3[2:1],4<4[2:1],
{1}5<5[2:1],
{16},3-6[8:1],,,,6-2[8:1],,,2-7[8:1],,,,,,,,
{32}4h[4:1],,,,1,8,7,6,5h[4:1],,,,8,1,2,3,4h[4:1],,,,1,8,7,6,5h[4:1],,,,8,1,2,3,
{16}6,6,5,7,3,3,4,2,8,8,7,1<1[2:1],8<8[2:1],7<7[2:1],6>6[2:1],5>5[2:1],
{1}4>4[2:1],
{16},2-7[8:1],,,,6-2[8:1],,,3-6[8:1],,,,,,,,
8,1,8,1,8,7/3,,6/2,,5/1,,4/8,7z3[16:3]/3,6,5,4,
3,,,,,2,1,8,7z3[16:3],6,5,4,3,,,,
,1/5,2/6,3/7,4/8,5,6,7,8,1-7[8:1],,,,5-1[8:1],,,
,3-5[8:1],,,7z3[8:1],,,,,,,,,,,,
{24}4,5,4,6,5,6,3,4,3,5,4,5,3,4,3,6,5,6,3,4,3,6,5,6,
3,{16},,,,,7z3[8:1],7,7/3,,,,,,4z8[8:1],4,8/4,
,,,,,7z3[8:1],7,3/7,,,,,,2z6[8:1],2,6/2,
,,,,,7z3[8:1],7,7/3,,,,,,2,2,5-8[8:1],
,3,3,,2,2,,4-1[8:1],,6,6,,7,7,,,
2,,,,,7V15[8:1],7,7/5-3[16:1],,,,,,8V26[8:1],8,8/6-4[16:1],
,,,,,7V15[8:1],7,7/5-3[16:1],,,,,,8V26[8:1],8,8/6-4[16:1],
,,,,,7V15[8:1],7,7/5-3[16:1],,,,,,2,2,5p8[8:1],
,3,3,,2,2,,4q1[8:1],,6,6,,7,7,,,
8,1,8,1,7,6/2,,6/2,,4/7,,4/8,7z3[16:3]/3,6/2,1/5,4/8,
7/3,,,,,5,6,7,8V26[8:1]/4V62[8:1],7/3,6/2,5/1,4/8,,,,
{32},,1,,8,,7,,5,4,3,2,1,8,7,6,5,4,3,2,1,8,7,6,5,4,3>7[8:1]/7<3[8:1],,,,,,
{16},7z3[8:1]/3z7[8:1],,,,,,,,,,,,,,,
E


  • [Mas]2つ目の塊の最後(Masterの24~25行目)の8^5[16:5],,,,6^3[16:5],,,,4^1[16:5],,,1b,,,,,,を8^5[8:3],,,,6^3[8:3],,,,4^1[16:5],,,1b,,,,,,に修正しました。 -- loco (2014-03-23 18:46:36)
  • [Re:Mas] Re:Masの57行目の3,,,,,を3,{16},,,,,に修正しました。 -- Echo (2022-11-24 21:18:03)
名前:
コメント:

タグ:

+ タグ編集
  • タグ:

このサイトはreCAPTCHAによって保護されており、Googleの プライバシーポリシー利用規約 が適用されます。

最終更新:2022年11月24日 21:18