セガサターン起動音[H.][Remix]

BPM EASY BASIC ADVANCED EXPERT MASTER
148 2 3 6 9 10

EASY


BASIC


ADVANCED


EXPERT


MASTER

(148)
{16}1,2,3,4,5,6,7,8,1,2,3,4,5,6,7,8,
{24}1,2,3,4,5,6,7,8,1,2,3,4,5,6,7,8,1,2,3,4,5,6,7,8,
{32}1,2,3,4,5,6,7,8,1,2,3,4,5,6,7,8,1,2,3,4,5,6,7,8,{4}1b,
{1},
,
{16},,,,,,18,18,18,,2,,7,,4,5,

{4}
4-8[2:1],,6-1[2:1],,
3-8[2:1],,,1b,
5-1[2:1],,3-8[2:1],,
6-1[2:1],,,8b,
4-8[2:1],,6-1[2:1],,
3-8[8:1],5-1[8:1],4-8[8:1],1b,
5-1[2:1],,3-8[2:1],,
6-1[8:1],4-8[8:1],5-1[8:1],8b,

1^6[8:3],7^4[8:3],5^2[8:3],3^8[8:3],
1^6[8:3],7^4[8:3],5,3b,
8^3[8:3],2^5[8:3],4^7[8:3],6^1[8:3],
8^3[8:3],2^5[8:3],4,6b,
1^6[4:1],6^3[4:1],3^8[4:1],8^5[4:1],
5^2[4:1],2^7[4:1],7,4b,
8^3[4:1],3^6[4:1],6^1[4:1],1^4[4:1],
4^7[4:1],7^2[4:1],2,5b,

{16}
8,,1,,2,,3,,4,,6,5,,5,,3,
4,,8,,7,,6,,5^2[8:1],,,,7b,,,,
1,,8,,7,,6,,5,,3,4,,4,,6,
5,,1,,2,,3,,4^7[8:1],,,,2b,,,,
18,,7,,6,,5,,4,,6,5,,3,,3,
4,,2,,3,,4,,5^2[8:1],,5,,7b,,,,
81,,2,,3,,4,,5,,3,4,,6,,6,
5,,7,,6,,5,,4^7[8:1],,4,,2b,,,,

{12}8h[4:1],,,1,8,2,7,3,6,4,5,3,
{8}6-2[8:1],,,,16,47,25,38,
{12}1h[4:1]/6,,,8,1,7,2,6,3,5,4,6,
{8}3-7[8:1],,,,1,1,7,{16}7,7,
{12}8h[4:1],,,7,8,6,1,5,2,4,3,5,
{8}2-6[8:1],,,,8,8,2,{16}2,2,
{12}1h[4:1],,,2,1,3,8,4,7,5,6,5,
{16},,,,,,45,45,45,,3,,6,,2,2,

{4}
7^2[8:1],3^6[8:1],7-3[8:1],2b,
6^3[8:1],2^7[8:1],3-7[8:1],6b,
7^2[8:1],3-7[8:1],6^3[8:1],2b,
3^6[8:1],7-3[8:1],2^7[8:1],6b,
2^7[8:1]/3^6[8:1],,3-7[8:1],6b,
7^2[8:1]/6^3[8:1],,7-3[8:1],2b,
7^2[8:1]/3^6[8:1],,7-3[8:1],2b,
6^3[4:1],3-7[4:1],7^2[4:1],5-1[4:9],
,,,8b,

{1}
,,,
E

名前:
コメント:

タグ:

+ タグ編集
  • タグ:

このサイトはreCAPTCHAによって保護されており、Googleの プライバシーポリシー利用規約 が適用されます。

最終更新:2013年11月15日 18:47