*ハロー、プラネット。

アーティスト sasakure.UK

BPM EASY BASIC ADVANCED EXPERT MASTER
150 2 3 6 9 12

EASY


BASIC

(150.0){1},,,,
{1}2,
{1}2,
{1}1,
{1}1,
{1}7,
{1}7,
{1}8,
{1}8,
{1}2h[1:1],,
{1}3,
{1}4/5,
{1}7h[1:1],,
{1}6,
{1}4/5,
{1}5-8[4:3],,
{1}1-4[4:3],,
{2}5,4,
{2}3,2,
{1}1h[2:1],
{1}8b,
{2}1,1,
{2}2,2,
{1}3-7[4:3],,
{2}8,8,
{2}7,7,
{1}6-2[4:3],,
{2}1,2,
{2}3,4,
{1}5h[2:1],
{1}6h[2:1],
{2}7,6,
{2}5,4,
{4}3,3,2,,
{1}1b,
{1}2-7[4:3],,
{1}6-3[4:3],,
{1}1h[2:3]/2h[2:3],,
{2}3,4,
{2}5,6,
{2}7,8,
{2}1,1b/8b,
{4},1,,1,
{4},2,,2,
{4},3,,3,
{4},4,,4,
{4},5,,5,
{4},6,,6,
{4},7,,7,
{4},8,,8,
{4},7,,7,
{4},6,,5/6,
{4},5,,5,
{4},4,,3/4,
{4},3,,3,
{4},2,,1/2,
{4},1,,1,
{4},8h[2:1],,,
{1}1b/8b,
E

ADVANCED

(150.0){1},,,,
{4}4,4,4,,
{4}5,5,5,,
{1}4h[1:1],,
{4}4,5,4,,
{4}5,4,5,,
{1}6-3[2:1],
{1}2h[2:1],
{4}3,3,4,,
{4}6,6,5,,
{1}4h[1:1],,
{4}4,5,6,,
{4}5,4,3,,
{2}1/2,7/8,
{2}1b/8b,2,
{1}2h[2:1],
{1}7h[2:1],
{1}1-4[4:3]/8-5[4:3],
{4},,6,6,
{4}5/6,,5,5,
{4}4/5,,4,4,
{1}4-1[2:1],
{1}8b,
{4}7,7,6,6,
{4}5,5,4,4,
{1}3/4,
{1}2/5,
{1}4^7[2:1],
{1}8^3[2:1],
{1}4^7[2:1],
{1}8^3[2:1],
{1}7-3[2:1],
{1}4-8[2:1],
{2}1,1,
{2}2,2,
{4}3,4,5,6,
{4}6,5,4,3,
{2}3/4,1/2,
{4}7b/8b,,1,1,
{1}8-5[2:1],
{1}4-1[2:1],
{4}8,8,7,7,
{1}6h[2:1],
{4}5,5,5,,
{4}4,4,4,,
{1}3-6[2:1],
{4}7,8,1,2,
{2}2h[2:1],1,
{2}1h[2:1],8b,
{4}1,8,1,8,
{4}1,2,3,4,
{2}4h[2:1],5,
{2}5h[2:1],4,
{4}4,5,4,5,
{4}4,3,2,1,
{2}8h[2:1],1,
{2}1h[2:1],8,
{4}1,8,1,8,
{4}1,8,7,6,
{2}5h[2:1],3,
{2}4h[2:1],6,
{4}4,5,4,5,
{4}4,5,6,7,
{2}7h[2:1],8,
{2}2h[2:1],1,
{1}1b/8b,
E

EXPERT

(150.0){2}8h[2:1],7h[2:1],
{2}6h[2:1],5h[2:1],
{4}4h[2:1],,3,2,
{1}3^6[8:3],
{4}4,5,3,6,
{4}4,5,3,6,
{4}3h[2:1],4,6h[2:1],5,
{4}2h[2:1],3,7h[4:1],6,
{4}5,4,7,2,
{4}5,4,7,2,
{4}7h[2:1],8,2h[2:1],1,
{4}6h[2:1],5,3h[4:1],4,
{4}2,5,4,7,
{4}3,6,2,5,
{4}2h[2:1],1,6h[2:1],5,
{4}3h[2:1],4,7h[4:1],8,
{4}5,1,7,3,
{4}8,4,6,1,
{8}1h[4:1]/8h[4:1],,,,7,3,6,4,
{4}5,2h[4:1],3h[4:1],4h[4:1],
{2}5h[1:1],6,
{2}4h[1:1],3,
{4}5h[2:1],,1-4[4:1],8-5[4:1],
{2},2^5[4:1],
{2}7^4[4:1],2^5[4:1],
{4}7^4[4:1],,2^5[4:1],1^6[4:1],
{8},,,,4,5,4,5,
{4}4,3/6,2/7,1b/8b,
{8}6,5,6,,3,4,3,,
{8}6,5,6,,3,4,3,,
{4}5/6h[4:1],7h[4:1],8h[4:1],1h[4:1],
{4}2h[4:1],3h[4:1],4h[4:1],5,
{8}3,4,3,,6,5,6,,
{8}3,4,3,,6,5,6,,
{4}4/3h[4:1],2h[4:1],1h[4:1],8h[4:1],
{4}7h[4:1],6h[4:1],5h[4:1],4,
{8}2,1,2,,7,8,7,,
{8}2,1,2,,7,8,7,,
{4}1/2h[4:1],8h[4:1],3h[4:1],4h[4:1],
{4}7h[4:1],6h[4:1],5h[4:1],4,
{8}7,8,7,,2,1,2,,
{8}7,8,7,,2,1,2,,
{4}8/7h[4:1],5h[4:1],3h[4:1],1h[4:1],
{1}8b,
{2}2^5[4:1],1h[2:1],
{2}7^4[4:1],8h[2:1],
{4}1,,4/5,1^4[4:1]/8^5[4:1],
{4},,,3/6,
{8}7h[4:1]/8h[4:1],,,3h[4:1]/4h[4:1],,,1h[4:1]/2h[4:1],,
{8},5h[4:1]/6h[4:1],,,1h[4:1]/8h[4:1],,,,
{8}3h[8:3],,,4,4,,8,,
{8}6h[8:3],,,5,5,,1,,
{8}3h[8:3],,,4,4,,1/6,,
{8}6h[8:3],,,5,5,,3b/8b,,
{4}2,5/6,7,3/4,
{8}1,,5/6,,8h[4:1],,1,1h[4:1],
{8},8,8,,1/2,,4/8,,
{4}7/8,1/5,1/2,4/8,
{4}7,3/4,2,5/6,
{8}8,,3/4,,1h[4:1],,8,8h[4:1],
{8},1,1,,7/8,,1/5,,
{4}1/2,4/8,7/8,1/5,
{8}1/2,,8,8,,3,4,5,
{8},7,6,5,,3,4,5,
{8},7/8,7/8,,1/2,,5,,
{4}7/8,4,1/2,5,
{8}7/8,,1,1,,6,5,4,
{8},2,3,4,,6,5,4,
{8},1/2,1/2,,7/8,,4,,
{4}1/2,5,7/8,4^7[2:1],,,,
E

MASTER

(150){16}
2h[8:3],,,,,,8h[8:1],,1h[4:1],,,,7h[4:1],,,,
3,4,3,,5,,4,,6,5,6,,4,,5,,
2h[8:3],,,,,,8,1,7h[16:3],,,3h[16:3],,,5,,
{4}1^6[4:1],6^3[4:1],,,

{8}
1,2,3,4,5,6,7,8,
,15,3,7,48,6,2,18,
27,,,{16}3-8[8:1],4,3,,,,,,6-1[8:1],5,
6,,,,,,1,8,2,,,7,,,2,,
{8}18,7,6,5,4,3,2,1,
,48,6,2,15,3,7,45,
27,{16},1h[16:5],,,,,,,7,8,7,,2,1,
2,,,6,5,,3,4,3,,,,6b,,,,

{8}
2h[2:1],1,1,1,8h[8:3],7,7,7,
,3h[4:1],,2,5,6,3,4,
{4}2^7[4:1]/7-3[4:1],,,{16}5,4,6,3,
{4}7,1b,,,
{8}1,5,7,5,3,8,4,6h[4:1],
,2,1,3,8,4,7,5h[4:1],
,6,47,{16}3,4,{8}3,6,2,8,
{4}4b,7h[4:1],8h[4:1],1h[4:1],

{1}
2^5[2:1],
1^6[2:1],
{4}
7-4[4:1],,8-3[4:1],,
4^7[4:1],,2,1,
8h[2:1],,2h[8:3],{8},4,
4h[8:3],,,6,6,,6^1[2:1],,
{1},
{4}1b/8b,4-8[8:1],6-1[8:1],,

{8}
,15,15,15,28,37,46,5,
,48,37,26,15,26,37,48,
{1}1^6[8:3]/5^2[8:3],
{16}2,,7,8,7,,3,4,3,,6,5,7,4,8,3,
{8}
,12,34,56,78,56,34,12,
,4h[8:7],7,8,1,2,1,8,
7b,1,6,4,7,2,5,3,
1,4,5,2,7,3,6,2,
6b,84,84,84,71,62,53,4,
5,46,37,28,1,48,37,26,
{16}1b/5b,,,8h[16:3],,,4,,2h[16:3],,,6h[16:3],,,8,,
4h[16:3],,,3h[16:3],,,{8}1,3-7[8:1],,,,
,23,23,23,67,67,67,67,
,67,58,14,2-7[8:1]/3-6[8:1],,,,
{16}8,7,6,5,4,3,2,1,8,7,6,5,4,3,2,1,
{4}8b,2^7[8:1]/6^3[8:1],,1-5[4:1]/8-4[4:1],

,,36,{16},,5,4,
{4}5h[4:3],4-1[4:1],,,
15,26,37,48,
1^6[8:3]/5^2[8:3],,,,
{8}
15,,,46,,,28,,
,37,,,2b/6b,,4b/8b,,
{16}
1,,3,4,3,,6,5,6,,3,4,3,,6,5,
6,,2,4,3,,7,5,{4}6,27,
6h[4:1],7h[4:1],8h[4:1],1-5[8:1],
7-3[8:1],6-2[8:1],4-8[8:1],,

{8}
7^2[8:1],5,4,5,3^8[8:1],4,5,4,
7^2[8:1],5,4,5,3^8[8:1],4,5,4,
,27,18,,1h[8:3],3,4,5,
,27,18,,4-1[8:1]/5-8[8:1],36,,,
2^7[8:1],4,5,4,6^1[8:1],5,4,5,
2^7[8:1],4,5,4,6^1[8:1],5,4,5,
,27,18,,2,34,5,67,
,27,18,,,{16}1,2,3,4,5,6,
{8}
7^4[8:1],8,1,8,3^6[8:1],1,8,1,
7^4[8:1],8,1,8,3^6[8:1],1,8,1,
,27,18,,1h[8:3],6,5,4,
,27,18,,,{16}8,7,6,5,4,3,
{8}
2^5[8:1],1,8,1,6^3[8:1],8,1,8,
2^5[8:1],1,8,1,6^3[8:1],8,1,8,
,27,18,,7,8,1,2,
{16},,1,8,1,8,2,7,3,6,4,5,3,6,2,7,
{1}
1b,

,,,,,
E

名前:
コメント:

タグ:

+ タグ編集
  • タグ:

このサイトはreCAPTCHAによって保護されており、Googleの プライバシーポリシー利用規約 が適用されます。

最終更新:2022年07月10日 14:28