EASY
BASIC
(159.0){1},,,
{2}2,2,
{2}1,1,
{2}2,2,
{1}1-4[4:1],
{2}6,6,
{2}5,5,
{2}6,6,
{1}5-8[4:1],
{4}2,2,,2,
{4},2,,2,
{4},3,,4,
{4},5,,6,
{4}7,7,,7,
{4},7,,7,
{4},6,,5,
{4},4,,3,
{4}2,2,,2,
{4},1,,1,
{1}1h[2:1],
{4}8,8,8,,
{4}7,7,,7,
{4},6,,6,
{4}7,7,8,8,
{1}1h[4:3],
{2}1,1,
{2}8,8,
{2}2,2,
{2}7,7,
{2}1,1/2,
{2}8,7/8,
{2}6,5/6,
{2}3,3b/4b,
{4}5,5,,5,
{4},6,,6,
{4},4,,4,
{4},3,,3,
{4}2,2,,2,
{4},1,,1,
{4}8,8,1,1,
{4}8,8,1h[2:1],,
{4},1,,2,
{4},3,,4,
{4},5/6,,4/5,
{4},3/4,3,3,
{2}2/3,1/8,
{2}6/7,4/5,
{4}4,4,5,5,
{1}3h[2:1]/6h[2:1],
{4}5,5,6,,
{4}4,4,3,,
{4}5,4,5,,
{1}4-1[4:1],
{4}7,7,7/8,,
{4}2,2,1/2,,
{4}8,1,1/8,,
{1}1-4[4:1],
{4},5,,4,
{4},3,,2,
{4},1,,8,
{4}7,7,7,7b,
{4}7/8,7/8,7/8,,
{4}5/6,5/6,5/6,,
{4}3/4,3/4,3/4,,
{1}2-6[4:1],
{4}7/8,7/8,7/8,,
{4}1/2,1/2,1/2,,
{4}3/4,3/4,3/4,,
{4}5,6,7,8,
{1}1b/8b,
E
ADVANCED
(159.0){2}3,2,
{1}1b,
{4},,1/8,1/8,
{4}1,1,3,3,
{4}8,8,6,6,
{4}2,2,4,4,
{4}7,7,5h[4:1],,
{4}1,2,3,4,
{4}8,7,6,5,
{4}2,1,8,7,
{4}8,1,2h[4:1],,
{4}1,1h[4:1],,8,
{4}2,2h[4:1],,3,
{4}7,7h[4:1],,6,
{4}4,5,4,4/5,
{4}2,1h[4:1],,8,
{4}7,8h[4:1],,1,
{4}5,4,3,2,
{2}1-5[16:3],8-4[16:3],
{4}2,1/2,7,7/8,
{4}1/8,2/7,3/6,4h[1:1]/5h[1:1],{1},
{4}2,7,1,8,
{4}3,4h[4:1],,5/6,
{4}6,5h[4:1],,3/4,
{4}3,1/8,6,1/8,
{1}1h[4:3]/8h[4:3],
{4}2,2,2-6[16:3],,
{4}7,7,7-3[16:3],,
{4}4,4,4-1[16:3],,
{4}8,8,8-5[16:3],,
{4}3,2/4,3,,
{4}7,6/8,7,,
{4}6,5/7,6,,
{4}2,1/3,2,,
{4}2,3,4,5,
{4}8,7,6,5,
{4}7,8,1,2,
{4}5,4,3,2,
{1}2-6[4:1],
{1}5-1[4:1],
{4}2,2,5,5,
{4}4,4,7b,,
{4}1/2,1/8,7/8,,
{4}5/6,4/5,3/4,3h[1:1],{1},
{4}6,7,8,1,
{2}1h[2:1],5h[2:1],
{4}3,7,3,7,
{4}3/7,2/6,1/5,4/8,
{4}1,1,2-6[16:3],,
{4}8,8,7,5/6,
{4}1,1,2,3/4,
{4}7,2,7/8,1/2,
{2}1h[4:1]/8h[4:1],1-5[16:3],
{4}7,6,5,3/4,
{4}2,3,4,5/6,
{4}7,8,1,2,
{4}1/2,1/8,7/8,1/8,
{1}1b/2b,
{1}2-7[4:1],
{1}6-3[4:1],
{4}1,3,5,7b,
{2}2-7[8:1],6-3[8:1],
{2}2-7[8:1],6-3[8:1],
{2}1-4[8:1],5-8[8:1],
{4}1^4[8:1],,8b,8b,
{2}2-5[8:1],6-1[8:1],
{2}2^5[8:1],1^6[8:1],
{2}3-6[8:1],7-2[8:1],
{4}3,4,5,3/6,
{1}1b/8b,
E
EXPERT
(159.0){2}4h[4:1],4h[4:1],
{1}4-1[4:5],,
{8}1,,6,3,4,3,6,,
{8}8,,3,6,5,6,3,,
{8}1,,6,3,4,3,6,,
{8}8,,3,6,5,8b,8b,,
{8}4,7,3,5,6,5,3,,
{8}5,2,6,4,3,4,6,,
{8}4,7,3,5,6,5,3,,
{8}5,2,6,4,5,8b,8b,,
{8}7,8,4,4,2,1,5,5,
{8},7,2,7,6,8,1,3,
{8}1,7,6,6,8,2,3,3,
{8}2,5,5,4,7,4,4,5,
{8}3,7,2,6,1,5,4,8,
{16},,7h[16:3],,,8h[16:3],,,1h[16:3],,,2h[16:3],,,1,,
{8}8,2,4,4,1,7,5,5,
{8}8,1,8,1,7,8,2,1,
{8}7,4,7,4,7,1,1/4,,
{8}2,5,2,5,2,8,5/8,5-1[8:5],{1},
{4}2/5,5/6,4/7,3/4,
{8}1,6,1,6,1,6,5,4,
{8},3,8,3,4,3,2,1,
{4}7/8,3/8,1/2,1/6,
{4}8-3[8:1],2-6[8:1],7-4[8:1],1b,
{8}6,4,3,4,6,8,8,,
{8}3,5,6,5,3,1,1,,
{8}6,4,3,4,6,8,8,,
{8}3,5,7,4,3,1b,1b,,
{8}2,7,8,6,4,2,2/3,,
{8}7,2,1,3,5,7,6/7,,
{8}2,7,8,6,4,2,2/3,,
{8}7,2,8,3,6,1b,1b/8b,,
{8}7,2,3,7,6,2,3,7,
{8}6,7,3,2,6,7,6,3,
{8}4,3,6,5,3,4,5,6,
{8}3,4,3,6,5,6,4,,
{8}1,2,8,7,1,2,1,8,
{8}2,1,7,8,2,8,7,,
{16}1,1,,7,7,,2,2,,8,8,,2,2,,7,
{16}7,,1,1,8,8,2^7[4:1],,,,,,,,,,
{16}8,,1,,2,,3,3,,4,4,,5,,,,
{16}1,,8,,7,,6,6,,5,5,,4,,3,3,
{16},4,,,7,7,,6,,,1,1,,2,,,
{8}8,7,8,1,2,1,3/6,,
{16}4,,3,3,3,,2,2,2,,1,1,1,,8,8,
{16}8,,7,7,7,,6,6,6,,5,,5,,4,,
{4}4,6,8,2,
{8}4b,6b,8b,2b,4h[4:1],,8b,,
{8}2,6,4,3,4,6,2,,
{8}7,3,5,6,5,3,7,,
{8}2,6,4,3,4,6,2,,
{8}7,3,5,6,3,1,8,6,
{8}7,3,5,6,5,3,7,,
{8}2,6,4,3,4,6,2,,
{8}7,3,5,6,5,3,7,,
{4}1b/2b,6b/7b,3b/4b,1b/8b,
{4}6/5h[2:1],3,6,1/8,
{4}3/4h[2:1],6,3,1/8,
{4}6/5h[2:1],3,6,1/8,
{4}4-7[8:1],6-2[8:1],3-8[8:1],1b,
{8}2,6,8,5,4,1,3b,,
{8}7,3,1,4,5,8,6b,,
{8}2,6,8,5,4,1,3b,,
{8}7,3,1,4,8b,5,1b,4,
{8}6,2,4,1,8,5,7b,,
{8}3,7,5,8,1,4,2b,,
{8}6,2,4,1,8,5,7b,,
{4}2b/8b,3b/5b,1b/7b,4b/6b,
{1}1b/8b,
E
MASTER
(159){2}
3,6,
1b,,
,{16}6,,6,,6,,6,,
1,,2,,3,4,3,,56,,7,,6,,,,
8,,7,,6,5,6,,43,,2,,3,,,,
1,,2,,3,4,3,,56,,8,,67,,,,
8,,7,,6,5,6,,43,,1,,32,,,,
1,,2,,6,5,6,,3-7[8:1],,4,,,,,,
8,,7,,3,4,3,,6-2[8:1],,5,,,,,,
1,,2,,6,5,6,,4-8[8:1],,3,,,,,,
8,,7,,3,4,3,,5,,6,,1b,,,,
2,,1,,4,,6,5,,5,6,,56,,,,
7,,8,,5,,3,4,,4,3,,43,,,,
2,,1,,4,,6,5,,5,6,,47,,,,
7,,8,,5,,3,4,,4,3,,52,,1,,
8,,7,,6,,2,1,,1,2,,34,,,,
1,,2,,3,,7,8,,8,7,,65,,,,
8,,7,,6,,2,1,,1,2,,4,,5,,
7,,7,,2,1,2,,6,5,6,5,7,5,6,,
3,4,3,4,3,,7,8,7,8,7,,2,1,2,1,
2,,6,5,6,5,6,,34,,2,1,8,7^2[16:9],6h[8:7],,
,,,,,,,,,,5,,5-1[8:1],,,,
3-8[8:1],,,,6-1[8:1],,,,4-8[8:1],,,,,,,,
2,,3,,4,,7,8,,8,6,,5,,4,,
7,,6,,5,,2,1,,1,3,,4,,5,,
{4}
1-6[8:1],8-3[8:1],2-5[8:1],7^4[2:1],
,,1-5[8:1],1b,
{16}
7,,3,4,3,2,3,,68,,7,,56,,,,
2,,6,5,6,7,6,,31,,2,,43,,,,
7,,3,4,3,2,3,,7,,6,,58,,,,
2,,6,5,6,7,6,,2,,3,,41,,,,
2,,6,4,5,7,5,,7-3[8:1],,6,,,,,,
7,,3,5,4,2,4,,2-6[8:1],,3,,,,,,
2,,6,4,5,7,5,,7-3[8:1],,6,,,,,,
1,5,2,6,3,7,4,8,3,7,2,6,1,5,8b,,
2,,1,,8,,3,4,,6,5,,23,,4,,
7,,8,,1,,6,5,,3,4,,76,,5,,
2,,1,,8,,3,4,,6,5,,23,,34,,
7,,8,,1,,6,5,,3,4,,76,,,,
{8}1-4[8:1],4^1[8:1],,,5-8[8:1],8^5[8:1],,,
4,3,2,1-4[8:1]/5-8[8:1],4^1[8:1]/8^5[8:1],,,,
{16}
3,4,,4,5,,5,6,,6,7,,7,8,,8,
1^4[8:1],,4^7[8:1],,,,,,8h[4:1],,,,,,2-5[8:1],1,
2,,,,6,6,,3,4,3,,34,,,7-4[8:1],8,
7,,,,3,3,,6,5,6,,65,,,2,1,
,38,,,7,8,,16,,,4,5,,36,,,
4-1[2:1]/5,,5,,6,,7,,8-5[16:1],,8,,,,,,
3,,6,5,6,,2,1,2,,7,8,7,,3,4,
3,,6,5,6,,3,4,{8}3,5,6,7,
8b,,2b,,4b,,6b,,
1-4[8:1],1-6[8:1],1-5[8:1],1^4[8:1],1^6[8:1],1,1b,,
{16}
5,,3,4,3,2,3-7[8:1],,6-1[8:1],,,,,,,,
4,,6,5,6,7,6-2[8:1],,3-8[8:1],,,,,,,,
5,,3,4,3,2,3-8[8:1],,6-3[8:1],,,,,,,,
4,,6,5,6,7,6-2[8:1],,2-6[8:1],,,,,,,,
6,,3,5,4,2,3-8[8:1],,7-4[8:1],,,,,,,,
3,,6,4,5,7,6-1[8:1],,2-5[8:1],,,,,,,,
6,,2,5,4,2,{8}3,3,4,5,6,
78,,56,,34,,12,,
8^3[16:3]/7b,2^5[16:3],,,1^6[16:3],7^4[16:3],,,
8^3[16:3],2^5[16:3],4^7[16:3],,7-3[8:1],,,,
{16}3,4,3,4,2,1,{8}2,6,5,6,7,
2-7[8:1],,4-8[8:1],,5-1[8:1],,7b,,
{16}
6,5,6,5,6-3[8:1],7,6-1[8:1],,6-2[8:1],,,,,,,,
3,4,3,4,3-6[8:1],2,3-8[8:1],,3-7[8:1],,,,,,,,
6,5,6,7,6-3[8:1],5,6-1[8:1],,6-2[8:1],,,,,,,,
3,4,3,2,3,4,3-7[8:1],,7-3[8:1],,,,,,,,
7,8,7,6,7-3[8:1],8,7^2[8:1],,7^4[8:1],,,,,,,,
2,1,2,3,2-6[8:1],1,2^7[8:1],,2^5[8:1],,,,,,,,
7,8,7,6,7,8,7^2[16:3],,1^4[16:3],,3^6[16:3],,,,,,
{4}
1-6[8:1],8-3[8:1],2-5[8:1],7-4[8:1],
{1}
,,
E
- よろしくお願いします -- 竹川由起子 (2023-01-04 18:20:52)
最終更新:2023年01月04日 18:20