初音ミクの消失(創作譜面:白狼)

曲名 初音ミクの消失
制作者名 白狼
音源 http://www.nicovideo.jp/watch/sm1476648
譜面動画
制作者コメント ---
BPM EASY BASIC ADVANCED EXPERT MASTER
245 - - - - 12

EASY


BASIC


ADVANCED


EXPERT


MASTER

(245){8}
8,,,8,,,8,7,6,,67,,68,,1,2,3,,,3,,4,3,,32,,31,,14,,48,,
58,,,,2,,,2,4,2,,5,,7,7,,1-4[8:1]/8-5[8:1],,,,1^4[8:1]/8^5[8:1],,,,5-8[8:1],,5-1[8:1],,5-2[8:1],,5-8[8:1],,
{12}1,8,1,7,2,7,3,6,3,5,4,5,4,5,4,6,3,6,2,7,2,8,1,8,1,5,1,6,2,6,3,7,3,8,4,8,4,8,4,7,3,7,2,6,2,5,1,5,
8,1,2,1,8,7,1,2,3,8,7,6,2,3,4,7,6,5,3,4,5,6,5,4,4,5,6,5,4,3,5,6,7,4,3,2,6,7,8,3,2,1,7,8,1,2,1,8,
1-5[16:1],,1,8-4[16:1],,8,2-6[16:1],,2,7-3[16:1],,7,3-7[16:1],,3,6-2[16:1],,6,4-8[16:1],,4,5-1[16:1],,5,
4-8[16:1],,4,5-1[16:1],,5,3-7[16:1],,3,6-2[16:1],,6,2-6[16:1],,2,7-3[16:1],,7,1-5[16:1],,1,8-4[16:1],,8,
{4}18,27,36,45,18,27,36,45,{8}1,8,2,7,3,6,4,5,{12}1,8,2,7,3,6,4,5,3,6h[4:1],,,
{8}1h[4:1],,2h[4:1],,3h[4:1],,2h[4:3]/4h[4:3],,,,,,,,4,5,5h[2:1],,,,6h[8:5],,7h[8:3],,,,7,8,7,,6,,
1h[4:1],,3h[4:1],,5h[4:1],,3h[4:1],,,,7h[4:1],,6h[4:1]/2h[4:1],,7h[4:1]/3h[4:1],,2^7[4:1]/6^3[4:1],,,,,,,,,,,,,,,,
1,,1h[8:3],2h[4:1],,,,,,,,,2h[4:1],,3h[4:1],,4h[1:1],,,5h[4:1],,,6h[4:1],,,,,,,,
68,17,2h[2:1]/8h[2:1],,,,,,17,28,1h[4:3]/3h[4:1],,,,7h[4:1],,,,6h[4:1],,,,5h[4:1],,,,3h[2:1],,,,,,,,
1,2,3,8,7,6,1,2,8,7,6,1,2,3,8,7,6,5,4,7,8,1,6,5,7,8,1,6,5,4,7,8,4,3,2,5,6,7,4,3,5,6,7,4,3,2,5,6,2,1,8,3,4,5,2,1,{16}1,8,1,7,1,,,,
5,6,7,8,1,2,3,4,8,8,8,8,8,{8},,14,,,47,,,72,,,25,,,58,,{17}4,,3,,4,,2,,4,,1,,4,,8,,4,,7,,4,,6,,4,,,
{8},12,12,47,47,38,38,56,56,78,78,25,25,16,16,1,2,3,4,5,6,7,8,{24}7,6,5,4,3,2b,
{4},,,,
{12}1,8,1,7,2,7,3,6,3,5,4,5,4,5,4,6,3,6,2,7,2,8,1,8,1,5,1,6,2,6,3,7,3,8,4,8,4,8,4,7,3,7,2,6,2,5,1,5,
8,1,2,1,8,7,1,2,3,8,7,6,2,3,4,7,6,5,3,4,5,6,5,4,4,5,6,5,4,3,5,6,7,4,3,2,6,7,8,3,2,1,7,8,1,2,1,8,
4-7[8:1],,,7-2[8:1],,,2-5[8:1],,,5-8[8:1],,,8-3[8:1],,,3-6[8:1],,,6-1[8:1],,,1-4[8:1],,,
4-7[8:1],,,7-2[8:1],,,2-5[8:1],,,5-8[8:1],,,8-3[8:1],,,3-6[8:1],,,6-1[8:1],,,1-4[8:1],,,
4-7[8:1],4,4,7-2[8:1],7,7,2-5[8:1],2,2,5-8[8:1],5,5,8-3[8:1],8,8,3-6[8:1],3,3,6-1[8:1],6,6,1-4[8:1],1,1,
4-7[8:1],4,4,7-2[8:1],7,7,2-5[8:1],2,2,5-8[8:1],5,5,8-3[8:1],8,8,3-6[8:1],3,3,6-1[8:1],6,6,1-4[8:1],1,1,
4-7[8:1],5,4,7-2[8:1],8,7,2-5[8:1],3,2,5-8[8:1],6,5,8-3[8:1],1,8,3-6[8:1],4,3,6-1[8:1],7,6,1-4[8:1],2,1,
4-7[8:1],6,4,7-2[8:1],1,7,2-5[8:1],4,2,5-8[8:1],7,5,8-3[8:1],2,8,3-6[8:1],5,3,6-1[8:1],8,6,1-4[8:1],3,1,
4-7[8:1],7,4,7-2[8:1],2,7,2-5[8:1],5,2,5-8[8:1],8,5,8-3[8:1],3,8,3-6[8:1],6,3,6-1[8:1],1,6,1-4[8:1],4,1,
4-7[8:1],8,4,7-2[8:1],3,7,2-5[8:1],6,2,5-8[8:1],1,5,8-3[8:1],4,8,3-6[8:1],7,3,6-1[8:1],2,6,1-4[8:1],5,1,
4-7[8:1],1,4,7-2[8:1],4,7,2-5[8:1],7,2,5-8[8:1],2,5,8-3[8:1],5,8,3-6[8:1],8,3,6-1[8:1],3,6,1-4[8:1],6,1,
4-7[8:1],2,4,7-2[8:1],5,7,2-5[8:1],8,2,5-8[8:1],3,5,8-3[8:1],6,8,3-6[8:1],1,3,6-1[8:1],4,6,1-4[8:1],7,1,
4-7[8:1],3,4,7-2[8:1],6,7,2-5[8:1],1,2,5-8[8:1],4,5,8-3[8:1],7,8,3-6[8:1],2,3,6-1[8:1],5,6,1-4[8:1],8,1,
4-7[8:1],4,4,7-2[8:1],7,7,2-5[8:1],2,2,5-8[8:1],5,5,8-3[8:1],8,8,3-6[8:1],3,3,6-1[8:1],6,6,1-4[8:1],1,1,
{8}1,2,1,2,2,3,2,3,3,4,3,4,4,5,4,5,5,6,5,6,6,7,6,7,7,8,7,8,8,1,8,1,1,1,1,2,3,2,3,4,3,3,3,4,3,4,5,6,5,5,5,6,7,6,7,8,7,7,7,8,{16}1b,8b,1b,8b,1b,2b,1b,2b,
{8}12,12,12,12,12,12,12,12,12,12,12,12,12,12,12,12,56,56,56,56,56,56,56,56,56,56,56,56,56,56,56,56,
12,23,34,45,87,76,65,54,15,26,37,48,48,37,26,15,{16}1b,2,3,4,5b,6,7,8,1b,2,3,4,5b,6,7,8,8b,7,6,5,4b,3,2,1,8b,7,6,5,4b,3,2,1,
{1}1h[1:4]/8h[1:4],
,,,,,
E


名前:
コメント:

タグ:

+ タグ編集
  • タグ:

このサイトはreCAPTCHAによって保護されており、Googleの プライバシーポリシー利用規約 が適用されます。

最終更新:2013年12月07日 14:03