Valanga(創作譜面:Bluish_eLvis)

曲名 Valanga
制作者名 Bluish_eLvis
音源 REFLEC BEAT colette -Winter-
http://nicosound.anyap.info/sound/sm20137522
譜面動画
制作者コメント ---
BPM EASY BASIC ADVANCED EXPERT MASTER
186 - - - - 11

EASY


BASIC


ADVANCED


EXPERT


MASTER

(186){8}
5h[1:1]/4,,3,4,,3,4,,
3h[1:1],4,,2,4,,2,4,
1h[1:1],8,7,,8,7,,8,
7h[1:1],,6,8,6,4,5,3,
5h[1:1]/4,,3,4,,3,4,,
3h[1:1],4,,2,4,,2,4,
1h[1:1],8,7,,8,7,,8,
7h[1:1],,6,8,6,4,5,3,

4h[8:3],3,2,5h[8:3],6,7,4h[8:3],3,
2,3h[8:3],2,1,8h[8:3],7,6,5h[8:3],
6,7,8h[8:3],1,2,3h[8:3],2,4,
6h[8:3],7,5,8h[8:3],4,1,3,2h[4:1],

1,8,7,2h[8:3],3,4,6h[8:3],5,
4,3h[8:3],4,5,5h[8:3],4,3,4h[8:5],
3,5,2,6,1,7,{16}8,4,8,4,
6,1,6,1,5,2,5,2,4,3,4,3,{4}2b,

{8}1h[8:3]/8,6,8,6h[2:1],1,3,1,3h[2:1],
7,5,7,5h[2:1],4,6,4,6h[2:1],
3,1,3,1h[2:1],2,8,2,8h[2:1],
7,1,7,1h[2:1],2,3,4,5h[2:1],

1,4,1,4h[2:1],8,3,8,3h[2:1],
2,4,2,4h[2:1],8,7,6,5h[2:1],
3,6,7,2,1,8,5,4,
7,3,2,6,8,4,1,{16}5,1,

{8}1h[8:3]/8,6,8,6h[2:1],1,3,1,{16}3h[2:1],6,
{8}7,5,7,5h[2:1],4,6,4,{16}6h[2:1],3,
{8}3,1,3,1h[2:1],2,8,2,{16}8h[2:1],6,
{8}7,1,7,1h[2:1],2,3,4,{16}5h[2:1],1,
{8}1,4,1,4h[2:1],8,3,8,{16}3h[2:1],1,
{8}2,4,2,4h[2:1],5,6,7,{16}8h[2:1],3,
{8}3,6,4,{16}5,5,{8}1,7,8,{16}2,2,
{8}5,8,4,1,6,2,3,7,

{8}16,16,,37,37,,25,25,,84,84,,{16}5,6,7,8,1,2,3,4,
{8}57,57,,26,26,,38,38,,25,25,,{12}4,3,2,5,6,7,
{8}18,18,,27,27,,45,45,,36,36,,{16}1,2,3,4,8,7,6,5,
{8}34,35,,12,12,,46,46,,78,78,{16}1,2,3,4,5,6,7,8,1,2,

{8}3h[1:1]/4,4,,4,4,,5,5,4h[2:1],5,5-1[4:1],,{2}5h[2:1]/4^7[4:1],
{8}1h[1:1]/4,4,,4,4,,3,3,7h[4:1],3,3^8[4:1]/5h[4:1],,{4}3h[4:1],1h[4:1],
{8}7h[1:1]/8,8,,8,8,,1,1,6h[2:1],1,1^4[4:1],,{2}5h[2:1]/1-5[4:1],
{8}4h[1:1]/2,2,,2,2,,7,7,1h[1:1],7,{4}7^4[4:1],4^1[4:1],,
{1}5h[1:2],{4},{8},{16}8,1,{8}8,7,4b,3,

(372){8}2-7[4:1],,6,8,1-5[4:1],,6,4,{4}31,28,17,1h[2:1]/8h[2:1],
,2h[2:1]/7h[2:1],,3,4,5,6,7,
{8}7-2[4:1]/1b,,,2-5[4:1],,,5-1[4:1],,,3-7[8:1]/4b,,,{4}27,45,3h[2:1]/5h[2:1],,,{8}1,8,{4}1,2,3,4,
{2}4h[2:1]/5-1[2:1],,{4}3,6,7,2,,1b/8b,,{8}1,1,1,,,2,,,{4}3,
{2}3-6[2:1],{4},4,{8}7,,,1,,,8,,{4}2h[2:1],,,{8}8,1,{4}8,7,6,5,
{8}4-8[4:1],,3,1,5-1[4:1],,6,8,{4}7,2,6,{2}3,1b/8b,{8}4,5,{4}3,2,1,8,
{8}1-6[8:1]/7b,,,2b/8-3[4:1],,,3-6[4:1],,,6-1[4:1],,,{4}18,36,2h[2:1]/7h[2:1],,,{8}1,8,{4}1,2,3,4,
{2}8b/5h[2:1],4-8[2:1],{4}4,3,8,1-5[4:1],,8b,{8}2,7,{4}1,6,3,2,,5h[1:2],,,4h[1:1],,,,,
{2}36,27,{8}1,8,2,7,3,6,4,5-1[2:1],

{4}8,6,8,6-2[2:1],1,3,1,3^8[2:1],
7,5,7,5^2[2:1],4,6,4,6-1[2:1],
3,1,3,1-4[2:1],2,8,2,8-5[2:1],
7,1,7,1^4[1:1],2,3,4,5^8[2:1],

1,4,1,4-1[2:1],8,3,8,3-7[2:1],
2,4,2,4-8[2:1],8,7,6,5^2[2:4],
3,6,7,2,1,8,5,{8}5,6,
7,,3,2,1,,6,7,8,,4,3,2,,1-5[2:1],7,

{4}8,6,8,6-2[2:1],1,3,1,3^8[2:1],
7,5,7,5^2[2:1],4,6,4,6-1[2:1],
3,1,3,1-4[2:1],2,8,2,8-5[2:1],
{8}7,,7,8,,8,{4}1^4[1:1],2,3,4,5^8[2:1],

1,4,1,4-1[2:1],8,3,8,3-7[2:1],
2,4,2,4-8[2:1],{8}8,7,6,5,1,2,3,4,
{4}35,34,,46,56,,78,72,,12,18,{8}8,1,7,2,6,3,5,4,
{1}5b,
,,,,
E

  • 中の画像を映像にできるんですか!! -- 白狼 (2013-11-26 19:49:29)
  • あー、そのへんはaviutlの方で頑張りました。 -- bluish_elvis (2013-11-27 02:06:10)
名前:
コメント:

タグ:

+ タグ編集
  • タグ:

このサイトはreCAPTCHAによって保護されており、Googleの プライバシーポリシー利用規約 が適用されます。

最終更新:2013年12月07日 14:38