Wonder World - Title Theme -(創作譜面:shimelar)

曲名 Wonder World - Title Theme -
制作者名 shimelar (しめらー)
音源
譜面動画
↑高フレーム、高画質版
制作者コメント 3:00 TAP/685,HOLD/67,SLIDE/99,BREAK/31,EACH186 BPM185.9 理論値622000+3100,100.49%です。
ソニックの新作「ソニックロストワールド」のメインテーマ曲「Wonder World - Title Theme -」のsimai譜面です。
高フレーム、高画質版も投稿しました。
レギュレーション違反(譜面のルール違反)はないことを確認済み。
BPM公開されてなかったからそこから手間取ってた。譜面は整理してないから注意してね。
新作は…今年とか来年とか…ゴニョゴニョ

なんかあったらココ→Twitter@shimelar

譜面修正しました。
BPM EASY BASIC ADVANCED EXPERT MASTER
178 - - - - 11

EASY


BASIC


ADVANCED


EXPERT


MASTER

(178){8}
2,7,2,7,,6,,5h[8:7],
,,,,,,,{16}1,2,
{8}1,4,6,8,2,5,,4h[8:3],
,,6,,5h[4:1],,3,,
2,,2,2,,2,,6h[4:3],
,,,,,7,8,1,
,3,3,2,1-4[16:1],,,,
2^7[16:1],,6h[4:1],,3^6[16:1],,7,,
2-6[2:1]/3-7[2:1],,,,,,,,
{16}1,2,3,45,6,7,81,2,3,4,5,6,7,8b/1,7/2b,6b/3,
{8}5/4b,,5,,7,,,8-4[16:1],
82,81,5,,5,4,67,,
54,,65,54,23,,{16}7-3[8:1}/8,1,2,3,
4,,,,{8}26,,5h[4:1]/1,,2,,
4,5,,3,4,,7-3[16:1],8,
1-5[16:1],2,14,,{16}72,3,{8}6h[8:1]/4h[8:1],,,
5,4,3,2,{16}1,8,7,6,5,4/3-7[8:1],,,
{8}7,,2,,5/2h[4:1],6,7b,,
{16}1,2,1,,4,,3,,67,,1,,5,,2,,
{8}16,4,38,,12,,7b,,
{16}2,3,4,1-5[16:1]/5,,,6,,,,87,,,,7,6,
5,5-2[8:1]/4,,,2,,1,,,,8,,8b,,,,
{8}5,6,2,3,,3,7/8h[8:3],5,
,4,3,3,,6h[4:1]/2h[4:1],,,
84,,15,26,7,3,8,,
4,6,2,,8,,71,,
2h[1:1],,,,,,,,
{16}7,6,{8}5h[8:7],,,,,,,
1,,,,,4,3,2,
,,,,7,,8,,
1,,,,,6-2[2:1]/5-1[2:1],74,56,
,,,,,,78,16,
25,,,,,1,2,3,
8,7,6,5,4h[2:1],,2,1,
8h[2:1],,,,,,,,
2-6[8:1],,7-4[8:1],,1-5[8:1],,,,
6,7,8,1,4,2-6[8:7],,5h[8:5],
,,,,,,,{16}3,4,
{8}3,2,1,8,7,7-3[16:1]/6h[4:1],,7,
,,2-5[16:1]/3h[4:1],,2,,7b/8b,,
4,,4,8,,26,,8h[2:1]/4^7[4:1],
,,,,,54,63,7^4[2:1]/2,
,1,1,8,8h[2:1],,,,
3-8[8:1],,3,,2-6[16:1],,7h[8:5],,
5,4,3,2,1,2^7[8:1]/8,7^4[6:1],8h[8:5],
,,,,,,,{16}3,4,
{8}23,14,25,36,8,7,,8^3[12:1]/7^4[12:1],
,78,,,3-7[16:1]/4-8[16:1],,34,,
54,,54,63,,72,,1h[2:1]/8h[2:1],
,,,,,36,27,1h[8:5]/8h[8:5],
,,,,,,,,
1-6[16:1]/8-3[16:1],,1b/8b,,6-2[16:1]/3-7[16:1],,6b/3b,,
1^6[1:1]/8^3[1:1],,,,,,,,
,,,,,3^6[4:3],6,2h[8:5],
,,,,,,,{16}3,2,
{8}1h[8:3],,,6h[8:3],,,5h[4:1],,
4h[1:1],,,,,5,7,8,
6,3,2,1h[8:3],,,3h[4:1],,
7h[2:1],,,,4,3,45,26,
{16}1b/8,,1,,15,,5b,4,63,,72,,8b,6,4,,
28,,4b/7,,5,6,5,6,2,,78,,,,,,
{8}45,,6,,4,,2,3-7[16:1],
6-1[16:1],36,6,,2,,82,,
1,5,46,28,,{20}3^8[4:1],4,5,6,7,{8}8^5[8:1],
,4,,3,5,,7h[4:1]/2b,,
1,,3,4,5,3-6[3:1],3,2,
,1-4[2:1],8,7,5h[2:1],,,,
{16}3,,,54,,,6,,{8}72,84,15,,
7/3h[4:1],,4h[4:1],,6h[4:1],,1b,,
{16}6,4,6,,73,,2,7,2,7,,62,,3,4,3,
4,3,,,{8}25,,45,,81,,
3,,7,4,,3,,7,
,4,36,82,,5,1b,,
45,45,27,36,,27,18,5,
4,6,3,{16}7,2,8,1,{8}27,,,
63,,74,18,2-5[8:1]/5,7-4[8:1],27,,
6,1,5,,3,,71,,
8h[1:1],,,,,,,,
{24}2,3,4h[12:11],{8},,,,,,,
7-4[4:1],,,,,5,2,8,
,,,,5,,3,,
1,,,,,7-2[2:1]/8-5[2:1],16,78,
,,,,,,62,53,
4,,,,,1,8,7,
2,3,6,5,4h[8:3],,5,5,
8h[2:1]/1h[2:1],,,,,,,,
2^7[8:1],,6-1[8:1],,3-8[8:1],,2b,,
7,8,6,1,{16}5,2,{8}5^2[8:7],,4h[8:5],
,,,,,,,{16}6,5,
{8}6,7,4,8,2,1^6[16:1],,4h[8:3],
,,2^5[16:1],,7h[4:1],,6b,,
4,,5,3,,7,,1h[2:1]/6^3[4:1],
,,,,,72,45,1^6[2:1]/8,
,3,2,1,8h[4:1],,,,
5-1[16:1]/4-8[16:1],,,,1-4[16:1]/8-5[16:1],,,,
2^7[4:1],,7-3[4:1],,3^6[5:1],,,,
,,7^2[4:1]/3^6[4:1],,,,,,
5-8[8:1],8-4[8:1],4-1[9:1],,,,,8-5[16:1],
,,,,7^4[16:1]/6^1[16:1],,,,
23,,76,45,,72,,1h[2:1]/8h[2:1],
,,,,,36,27,1^6[8:3]/8^3[8:3],
,,,,,,,,
8-4[16:1]/5-1[16:1],,8b/5b,,1-6[16:1]/4-7[16:1],,1b/4b,,
6-2[4:3],8,1,2,3,4,5,4,
,3,1b/7h[2:1],,,,,{16}3,4,
{8}3,6,1,5,8,4,,1^6[16:1]/8-3[16:1],
,18,,5^2[16:1]/4-7[16:1],,45,,,
36,36,45,45,,2/7^4[8:1],,8h[2:1],
,,,,,8^3[8:5]/4^7[8:5],26,84,
,,,,,,,,
6h[4:1]/3h[4:1],,,,7h[4:1]/2h[4:1],,,,
8h[2:1]/1h[4:1],,,,4,,4,,
2,,6,5,,4,5,3,
5,,8,,2,,6,,
3h[2:1],,,,5h[2:1],,,,
1-4[4:1],,4-8[4:1],,8^5[4:1],,5-2[4:1],,
2-6[4:1],,6-1[8:1],1^4[8:1],,,,,
7h[8:3],,,8h[8:3],,,2h[4:1],,
3h[4:3],,,,6-1[4:1],,6,,
4,,,,8^5[12:1]/1,,1^4[12:1]/8,,
8-5[12:1]/1,,8/1-4[12:1],,8-4[12:1]/1,,1-5[12:1]/8,,
8,8h[2:1],,,{16}4,3,2,1,8,7,6,5,
{24}4,3,2,1,8,7,6,5,45,36,27,18,
1,2,3,4,5,6,7,8,1,2,3,5b/4,6/3b,7b/2,8/1b,
{1},,,
E



名前:
コメント:

タグ:

+ タグ編集
  • タグ:

このサイトはreCAPTCHAによって保護されており、Googleの プライバシーポリシー利用規約 が適用されます。

最終更新:2014年02月12日 20:48