We're so Happy(創作譜面:Bluish_eLvis)

曲名 We're so Happy
制作者名 Bluish_eLvis
音源 jubeat saucer
http://nicosound.anyap.info/sound/sm22072941
譜面動画
制作者コメント maiPad miniのiOS版がほしい夜でした。
BPM EASY BASIC ADVANCED EXPERT MASTER
185 - - - - 12

EASY


BASIC


ADVANCED


EXPERT


MASTER

(185){8}2,1,8,7,,6,5,4,3,4,5,6,,7,8,1,
7,8,1,2,,3,4,5,6,5,4,3,,2,1,8,
1h[8:3],2,3,4h[4:1],,3h[4:1],2,1,8h[8:3],7,6,5h[4:1],,6h[8:3],7,8,
1h[8:3],2,3,4h[4:1],,3h[4:1],2,1,8h[8:3],7,6,5h[4:1],,6h[8:3],7,8,{1},{8}
13,4,85,6,7,84,1,25,83,4,15,6,7,84,1,25,
83,4,15,6,7,85,1,24,13,4,85,6,7,85,1,24,
38,7,26,5,4,63,2,71,38,7,26,5,4,73,2,61,
28,7,36,5,4,73,2,61,28,7,36,5,4,63,2,71,
47,8,51,2,3,14,5,86,57,8,41,2,3,14,5,86,
57,8,41,2,3,84,5,16,47,8,51,2,3,84,5,16,
74,3,62,1,8,27,6,35,4,63,2,71,8,37,6,25,
14,83,72,61,58,47,{16}6,6,5,5,{1}4-1[2:1],
{8}8^5[8:1],2,3,{4}8-4[4:1],7,6-2[4:1],8,5^8[8:1],{8}8,4,,
{8}1^4[8:1],7,6,{4}1-5[8:1],2,3-7[4:1],1,{8}4,{16}1,2,8,3,7,4,6,5,
{8}8-3[8:1],2,3,{4}8^3[4:1],7,6^3[4:1],8,5-1[8:1],{8}8,4,,
{8}1-4[8:1],7,6,{4}1^6[4:1],2,{8}3,{16}4,3,5,2,6,1,7,8,1,5,2,6,3,7,4,8,
{16}1/5b,,84,,2,23,,27,,7,76,,1b/8b,,,,
8/4b,,15,,7,76,,27,,2,23,,4b/5b,,,,
1/5b,,84,,2,23,,27,,7,76,,4b/5b,,1b/8b,,
8/4b,,15,,7,76,,27,,2,23,,1b/8b,,4b/5b,,
{8}28,1,17,8,35,4,46,5,
13,2,68,7,24,3,57,6,
{16}1,3,1,4,8,6,8,5,2,3,2,4,7,6,7,5,
1,3,1,4,8,6,8,5,2,3,2,4,7,6,7,5,
{1},
{24}1-5[4:1]/8-4[4:1],27,36,{8}4b/5b,{4}1b/8b,4b/5b,2b/7b,{8}
73,4,5,16,7,38,1,52,3,74,5,16,7,8,71,2,
48,7,6,25,4,83,2,61,8,47,6,25,4,3,42,1,
27,8,1,82,3,64,5,46,7,28,1,82,3,64,75,6,
84,3,2,21,8,47,6,65,4,83,2,21,8,47,56,5,
{8}8^5[8:1],1,2,8-4[4:1],3,4,5,6-2[4:1],7,8,1,5^8[8:1],4,8,4,,
{8}1^4[8:1],8,7,1-5[8:1],6,5,4,3-7[4:1],2,1,8,4^7[8:1],5,1,5,,
{8}8-3[8:1],1,2,8^3[4:1],3,4,5,6^3[4:1],7,8,1,5-1[8:1],4,8,4,,
{8}1-4[8:1],8,7,1^6[4:1],6,5,4,3,
{24}1-5[4:1]/8-4[4:1],27,36,{8}4b/5b,{4}1b/8b,4b/5b,2b/7b,
{16}15,,2,3,8,4,,8h[16:3],1,,7,,64,,5,,63,,7,8,2,1,,2,7,8,,8,26,3,4,5,
{16}82,,7,6,3,5,,1h[16:3],6,,2,,37,,4,,38,,2,1,5,8,,7,4,6,,5,1/4h[8:1],,,,
{8}1-6[16:1]/8-3[16:1],,36,27,{16}1,5,2,6,3,7,4,8,
{8}2-5[16:1]/7-4[16:1],,45,18,{16}8,4,7,3,6,2,5,1,
{8}8-5[8:1]/4b,5-8^[8:1]/1b,,,1-4[8:1]/5b,4-1^[8:1]/8b,,,
{16}7,3,6,2,8,4,5,1,{4}36,27,{1}1b/8b,,,,
{16}1/5b,,84,,2,23,,27,,7,76,,1b/8b,,,,
8/4b,,15,,7,76,,27,,2,23,,4b/5b,,1b/8b,,
{8}2/7b,3,4/8b,1,7/2b,6,5/1b,8,
2b/6b,{24}73,84,15,{8}26,45,36,26,37,27,
{8}8-5[8:1],5,8b,,{16}7^2[12:1],2-6[12:1],6-3[12:1],,{4},
{16}4,5,3,6,2,7,1,8,{8}5-8[8:1],8^3[8:1],3-7[8:1],,
(370){8}7-4[8:1],,2,3,8,4,,8,1-4[8:1],,7,,64,,5,,63,,7,8,2-7[8:1],1,,2,7-2[8:1],8,,8,26,3,4,5,
8^3[8:1]/2,,7,6,3^6[8:1],5,,1,6^3[8:1],,2,,37,,4,,3/8^5[8:1],,2,1,5,8,,7,4^1[8:1],6,,5,1/4b,,,,
1/5-8[8:1],,2,3,8,4,,8,1-4[8:1],,7,,64,,5,,63,,7,8,2-7[8:1],1,,2,7-2[8:1],8,,8,26,3,4,5,
8^3[8:1]/2,,7,6,3^6[8:1],5,,1,6^3[8:1],,2,,37,,4,,3b/8^5[4:1],,2,1,5-1[8:1],8,,7,4b,7,,8,1b,,,,
(185){8}8^5[8:1],1,2,8-4[4:1],3,4,5,6-2[4:1],7,8,1,5^8[8:1],4,8,4,,
1^4[8:1],8,7,1-5[8:1],6,5,4,3-7[4:1],2,1,8,4^7[8:1],5,1,5,,
{8}2-5[32:1]/7-4[32:1],27,45,45,{16}8,4,7,3,6,2,5,1,
{8}1-6[32:1]/8-3[32:1],1-4[32:1]/8-5[32:1],36,45,{16}1,5,2,6,3,7,4,8,
{8}8-5[8:1],5,8b,,{16}2^7[12:1],7-3[12:1],3^6[12:1],,{4},
{16}8,5,1,4,7,6,2,3,(370){2}8-5[8:1]/7-2[8:1],4-1[8:1]/3-6[8:1],1b/6b,
{1},,E

名前:
コメント:

タグ:

+ タグ編集
  • タグ:

このサイトはreCAPTCHAによって保護されており、Googleの プライバシーポリシー利用規約 が適用されます。

最終更新:2013年12月26日 11:08