FLOWER (創作譜面:白狼)

曲名 FLOWER
制作者名 白狼
音源 ---
譜面動画
制作者コメント ---
BPM EASY BASIC ADVANCED EXPERT MASTER
173 - - - - 12

EASY


BASIC


ADVANCED


EXPERT


MASTER

(173){8}1,1,3,{16}1,3,{8}8,8,6,{16}2,4,2,4,2,4,2,,{8}2h[8:3]/4h[8:3],,,,,45,18,68,24,17,46,13,{16}46,73,{8}2h[16:11]/8h[16:11],,,,,,28,,
2-5[1:3]/8-5[1:3],1,3,4,,8,6,5,,8,3,4,,1,6,5,,7,3,4,,2,6,7,,2,3,4,,3,7,5,4-7[8:19]/2-7[8:19],3,2,1,,5,6,7,,4,3,2,,8,7,6,,1,5,3,,
4h[8:3],5,5h[8:3],,7h[8:3],,1h[8:3],,2h[4:1],,6,
2^7[16:1],7^2[16:1],{16}2,7,2,,7-3[16:1],,,3-7[16:1],,,7,,3-6[16:1],,6-3[16:1],,3,6,3,,6-2[16:1],,,2-6[16:1],,,6,,2^7[16:1],,7^2[16:1],,2,7,2,,7-3[16:1],,,3-7[16:1],
{8}1,1-5[8:1],,1h[8:1],,8-4[8:1],,8h[8:1],,1,
2^7[16:1],7^4[16:1],{16}3,2,1,,5-1[16:1],,,1-5[16:1],,,5,,1^4[16:1],,4^7[16:1],,8,1,2,,5-1[16:1],,,1-5[16:1],,,5,,1^6[16:1],,6^3[16:1],,3,8,3,,8-4[16:1],,,4-8[16:1],
{8},,8^5[4:1]/5^2[4:1],,,,5^2[4:1]/2^7[4:1],,,,2^7[8:1]/7^4[8:1],,,7^4[8:1]/4^1[8:1],,,4^1[4:7]/1^6[4:7],,,,4h[8:3]/1h[8:3],,,,1h[8:3]/6h[8:3],,,,1h[8:3]/4h[8:3],,,,
16,1/6^3[8:1],,8^5[8:1],,2^7[8:1],,4^1[8:1],,2^5[4:1],{16}1,,1,8,,8,7,,67,,,34,,,12,,2,,2,3,,3,4,,78,,,23,,,45,,8,,8,7,,7,1,,34,,,17,,,28,,
1,,,1,,,1,,1,2,3,1,8,7,{8}1,12,1,1/3h[4:1],1,14,4,4/8h[4:1],4,47,7,3h[4:1]/7,7,27,2,2/6h[4:1],2,25,5,1h[4:1]/5,5,58,8,8/4h[4:1],8,38,3,3/7h[4:1],3,36,6,2h[4:1]/6,6,
{16}3,,5,3,,3,1,,37,,3,1,,3,1,,75,,7,1,,7,13,,72,,5,73,,71,58,,{8}1-4[16:1]/5-8[16:1],15,,3-6[16:1]/7-2[16:1],37,,1,,{16}23,,,67,,,15,,,37,,,3-7[16:1]/6,,3b/6b,,
6,,6,5,,5,4,,1,2,3,4,1,8,7,6,1,,1,2,,2,3,,6,5,4,3,6,7,8,1,8,,8,7,,7,6,,3,4,5,6,3,2,1,8,35,,,78,,,12,,46,7,3,8,3,1,2,1,
6,,6,5,,5,4,,1,2,3,4,5,26,37,48,1,,1,2,,2,3,,6,5,4,3,68,71,82,13,8,,8,7,,7,6,,3,4,5,6,38,27,16,85,17,,,34,,,56,,28,3,7,4,7,5,6,5,
6,,6,5,,5,4,,1^4[4:1],2,3,4,1,8,7,6,1,,1,2,,2,3,,6^3[4:1],5,4,3,6,7,8,1,8,,8,7,,7,6,,3^6[4:1],4,5,6,3,2,1,8,35,,,78,,,12,,46,7,3,8,3,1,2,1,
6,,6,5,,5,4,,15,26,37,48,15,84,73,62,1,,1,2,,2,3,,68,57,46,35,68,71,82,13,8,,8,7,,7,6,,38,41,52,63,38,27,16,85,35,,,78,,,12,,46,7,3,8,3,1,2,1,
8^5[16:1]/1^4[16:1],,,8-5[16:1]/1-4[16:1],,,8-4[16:1]/1-5[16:1],,,8^5[16:1]/1^4[16:1],,,18,,4b/5b,,78,,78,,25,,61,,3h[4:1]/4-8[8:1],,,,,,,,
4^1[16:1]/5^8[16:1],,,4-1[16:1]/5-8[16:1],,,4-8[16:1]/5-1[16:1],,,4^1[16:1]/5^8[16:1],,,45,,1b/8b,,3,4,3,4,7,8,7,8,7h[4:1]/8-4[8:1],,,,,,,,
6^3[16:1]/7^2[16:1],,,6-3[16:1]/7-2[16:1],,,6-2[16:1]/7-3[16:1],,,6^3[16:1]/7^2[16:1],,,67,,2b/3b,,56,,56,,83,,47,,1h[4:1]/2-6[8:1],,,,,,,,
2^7[16:1]/3^6[16:1],,,2-7[16:1]/3-6[16:1],,,2-6[16:1]/3-7[16:1],,,2^7[16:1]/3^6[16:1],,,23,,6b/7b,,{4}1h[4:3]/2h[4:3],,,,
{16}8-4[2:1]7,6,5,4,3,2,1,8,1,2,3,4,5,6,7,8,6,4,2,8,2,4,6,8b,5b,2b,7b,4b,1b,6b,3b,,
{8}8h[8:7],,,,4h[8:3],,,,5h[8:7],,,,7h[8:3],,,,2h[4:1],,3h[4:1],,1h[4:1],,6h[4:1],,{16}2h[8:1]/3,,,4,,,7h[4:1],,6h[8:1],,,,48,,,,
{8}3h[8:7],,5,,7,,5,,7h[8:15],,1,,5,,1,,1-4[16:12],,,,5-8[16:1],,,,{16}78,,,34,,,71,,3-8[16:1]/5-1[16:1],,,,3b/5b,,,,
{16}87,,87,56,,56,43,,2-7[8:1],3-6[8:1],1,4,2,3,1,4,43,,43,12,,12,87,,6-3[8:1],7-2[8:1],5,8,6,7,5,8,45,,45,36,,36,27,,7-3[8:1],2-6[8:1],3,6,7,2,3,6,
3h[4:1]/1-6[16:1],,,8-5[16:1],,,28,,28,,,,6,7,8,1,
87,,56,56,,43,43,,7-2[8:1],6-3[8:1],5,8,7,6,5,8,43,,12,12,,87,87,,3-6[8:1],2-7[8:1],1,4,3,2,1,4,45,,36,36,,27,27,,3-7[8:1],6-2[8:1],7,2,3,6,7,2,
3h[4:1]/6-1[16:1],,,5-8[16:1],,,28,,28,,,,6,7,8,1,
8^5[16:1]/1^4[16:1],,,8-5[16:1]/1-4[16:1],,,8-4[16:1]/1-5[16:1],,,8^5[16:1]/1^4[16:1],,,18,,4b/5b,,78,,78,,25,,61,,3h[4:1]/4-8[8:1],,,,,,,,
4^1[16:1]/5^8[16:1],,,4-1[16:1]/5-8[16:1],,,4-8[16:1]/5-1[16:1],,,4^1[16:1]/5^8[16:1],,,45,,1b/8b,,3,4,3,4,7,8,7,8,7h[4:1]/8-4[8:1],,,,,,,,
6^3[16:1]/7^2[16:1],,,6-3[16:1]/7-2[16:1],,,6-2[16:1]/7-3[16:1],,,6^3[16:1]/7^2[16:1],,,67,,2b/3b,,56,,56,,83,,47,,1h[4:1]/2-6[8:1],,,,,,,,
2^7[16:1]/3^6[16:1],,,2-7[16:1]/3-6[16:1],,,2-6[16:1]/3-7[16:1],,,2^7[16:1]/3^6[16:1],,,23,,6b/7b,,{4}1h[16:11]/2h[16:11],,,{64}8b/3b,7b/4b,5b/6b,,,,,,E

名前:
コメント:

タグ:

+ タグ編集
  • タグ:

このサイトはreCAPTCHAによって保護されており、Googleの プライバシーポリシー利用規約 が適用されます。

最終更新:2014年01月10日 02:22