zirkfied(創作譜面:Bluish_eLvis)

曲名 zirkfied
制作者名 Bluish_eLvis
音源 beatmaniaIIDX 20 tricoro
REFLEC BEAT colette
pop'n music Sunny Park
http://www.nicovideo.jp/watch/sm21817490
譜面動画
制作者コメント 方舟にてSAN値が尽きかけた、終末の冬を思い返しながら書いていた(らしい)譜面です。
○ガの音ゲーをやる傍らでセ○のネトゲーに言い知れぬ憎悪を抱く、まさに滑稽!
BPM EASY BASIC ADVANCED EXPERT MASTER
210 - - - - 12

EASY


BASIC


ADVANCED


EXPERT


MASTER

(210){8}2-6[4:1],6,2h[4:1],,8-4[4:1],4,8h[4:1],,3-6[4:1],6,3h[4:1],,7-2[4:1],2,7h[4:1],,
1h[8:3],,8h[8:3],,4,3,2,1,{2}8h[4:3],7h[8:3],
{12}6/1b,6,1,7,2,7,3,8,3,2b/4b,,,8b/3,3,8,2,7,2,6,1,6,5b/7b,,,
3b/7,3,6,1b/5,2,6,5b/2,7,4,7b/4,3,1,
6/1-5[4:1],2,6,1,5,1,3/8-4[4:1],7,4,8,4,8,
6/1b,6,1,7,2,7,3,8,3,2b/4b,,,8b/3,3,8,2,7,2,6,1,6,5b/7b,,,
3b/7,3,6,1b/5,2,6,5b/2,7,4,7b/4,3,1,
6/1-5[4:1],2,6,1,5,1,3/8-4[4:1],7,4,8,4,8,
3b/6b,3b/6b,3b/6b,3b/6b,3b/6b,3b/6b,
3b/6b,3b/6b,3b/6b,3b/6b,3b/6b,3b/6b,{1}3b/6b,
{8}4h[2:1],5,6,7,8h[2:1],7,6,5,6h[1:1],5,7,4,8,3,1,2h[1:1],
,3,1,4,8,5,7,6,2-6[8:1],6,4-8[8:1],8,6-2[8:1],2,8-4[2:1],4,
1,5,8,5h[2:1],4,3,2,1,8,4,1,4h[2:1],5,6,7,8,
1,4,2,7,5,8,6,3,1-5[2:1]/3-7[2:1],37,{4}5-1[2:1]/7-3[2:1],,,
{8}4h[8:3],3,2,1h[8:5],2,3,4,5,6h[1:1],5,8,7,4,1,3,2h[1:1],
,3,1,4,8,5,7,6,2-6[8:1],6h[4:1],4-8[8:1],8h[4:1],6-2[8:1],2h[4:1],8-4[2:1],4h[4:1],
1,5,8,5h[2:1],4,3,2,1,8,4,1,4h[2:1],5,6,7,8,
1,4,2,7,5,8,6,3,1-5[2:1]/3-7[2:1],37,{4}5-1[2:1]/7-3[2:1],57,,
{8}1b,5,2,6,3,7,4,8,1,5,2,6,3,7,4,8b,{12}1b,4,7,2,5,8,3,6,1,4,7,2,
{24}5^8[4:1],6^1[4:1],7^2[4:1],8^3[4:1],1^4[4:1],2^5[4:1],3^6[4:1],4^7[4:1],,{8},{4},,
4-8[4:1],1h[4:1],5-1[4:1],8h[4:1],3-8[4:1],2h[4:1],6-1[4:1],7h[4:1],
8-4[4:1],5h[4:1],1-5[4:1],4h[4:1],8-3[4:1],6h[4:1],1-6[4:1],3h[4:1],
2-5[4:1],2/7-4[4:1],7,4,7-3[4:1],7/2-6[4:1],2,6,
6-3[4:1]/7-2[4:1],67,2-6[4:1]/8-5[4:1],28,1b/4b,8b/5b,{12}2b/7b,2b/7b,2b/7b,3b/6b,3b/6b,3b/6b,
{12}7-4[4:1],,,7,,4,1-5[4:1],,,1,,5,8-3[4:1],,,8,,3,2-6[4:1],,,2,,6,3-7[4:1],,,3,,7,5-8[4:1],,,5,,8,4-1[4:1],,,4,,1,6-2[4:1],2,6,2,,2,
8h[4:1],1,2,3,4,5,2h[4:1],1,8,7,6,5,
7h[2:1],8,1,2,3,4,1h[2:1],8,7,6,5,4,
6h[4:1],7,8,1h[4:1],2,3,8h[4:1],7,6,5h[4:1],4,3,
7h[4:1],8,1,2h[4:1],3,4,6h[4:1],5,4,3h[4:1],2,1,
{2}4h[2:1],8h[2:1],,6h[2:1],,3h[2:1],1h[2:1],7h[2:1],,6h[4:3],3h[4:1],{4}36,45,45,36,27,18,18,23,45,67,
1h[4:3],,3,6,3/8h[2:1],,6h[4:1],3h[4:1],6h[4:1]/2h[4:3],,4,5,4/7h[2:1],,5h[4:1],4h[4:1],5h[4:1],,4,5,5,6,7,8,
{2}7h[1:1],{4}2,3,{2}6h[4:3],{4}3,{8},2,
{16}5,4,5,4,5,4,5,4,{8}5,5,{4},
{16}3,6,3,6,3,6,3,6,{8}3,2,2,2,
{16}7,2,7,2,7,2,7,2,{8}8,8,8,8,{6}1b/6b,3b/5b,2b/4b,3b/8b,4b/7b,5b/6b,{4},{8},{24}2,1,8,{8}7b,2b,,,
{16}1,4,2,8,{8}1h[8:3],,,3,24,35,{12}6,8,6,1,7,5,2,8,6,3,1,5,
{32}5,6,7,8,{8},{32}1,2,3,4,{8},{32}4,5,6,7,{8},{32}8,1,2,3,{8},{32}6,7,8,1,{8},{32}2,3,4,5,{8},{32}5,6,7,8,{8},{32}1,2,3,4,{8},
{16}4,5,3,6,2,7,1^6[4:1],8,{8}1,1h[4:1],,,{16}5,4,6,3,7,2,8^3[4:1],1,{8}8,8h[4:1],,,
{12}1,5,8,4,1,5,{8}8h[8:1],4h[8:1],1h[8:1],5h[8:1],{8}2,6,3,7,,45,36,27,

{16}1,4,2,8,{8}1h[8:3],,,3,24,35,{12}6,8,6,1,7,5,2,8,6,3,1,5,
{32}4,3,2,1,{8},{32}8,7,6,5,{8},{32}3,2,1,8,{8},{32}7,6,5,4,{8},{32}5,4,3,2,{8},{32}1,8,7,6,{8},{32}4,3,2,1,{8},{32}8,7,6,5,{8},
{16}4,6,8,2,{8}4^1[4:1],,,2,8,6,{16}7,3,8,4,1,5,2,6,2,6,1,5,8,4,7,3,
{16}27,27,27,,34,34,34,,18,18,18,,56,56,56,,1,3,1,4,6,4,6,5,8,5,8,4,6,3,6,2,
{12}1,6,1,7,2,7,3,8,3,24,,,8,3,8,2,7,2,6,1,6,57,,,
7,3,6,1,2,6,5,7,4,7,3,1,
1^4[4:1],2,6,1,5,1,8^5[4:1],7,4,8,4,8,
6/1b,6,1,7,2,7,3,8,3,2b/4b,,,8b/3,3,8,2,7,2,6,1,6,5b/7b,,,
3b/7,3,6,1b/5,2,6,5b/2,7,4,7b/4,3,1,
6/1^6[4:1],2,6,1,5,1,3/8^3[4:1],7,4,8,4,8,
{12}7-4[4:1],,,4,7,4,1-5[4:1],,,5,1,5,8-3[4:1],,,3,8,3,2-6[4:1],6,2,6,2,6,3-7[4:1],,3,7,3,7,5-8[4:1],,5,8,5,8,4-1[4:1],,4,1,4,1,6-2[4:1],2,6,2,6,2,
5^8[8:1],4,3,2-6[8:1],1,8,7^2[8:1],6,5,4-8[8:1],3,2,3^8[8:1],4,5,6-1[8:1],7,8,1^6[8:1],2,3,4-1[8:1],5,6,
6-3[8:1],5,6-1[8:1],7,,,3-6[8:1],4,3-8[8:1],2,,,
5^2[8:1],4,6,3-7[8:1],7,2,6,3,7,2,8,1,
1b/8b,1b/8b,1b/8b,4b/5b,4b/5b,4b/5b,{4}4b/5b,2b/7b,E
名前:
コメント:

タグ:

+ タグ編集
  • タグ:

このサイトはreCAPTCHAによって保護されており、Googleの プライバシーポリシー利用規約 が適用されます。

最終更新:2014年01月03日 22:56