Windy Hill - Zone1(創作譜面:shimelar)

曲名 Windy Hill - Zone1
制作者名 shimelar(しめらー)
音源
譜面動画
↓youtube高画質フレーム改善版
制作者コメント
ルール違反なし

3:45は長かった(白目
BREAK34個で+0.34%...
TAP数ェ...
一小節に区切ったら見やすいな...(小声

twitter-@shimelar
BPM EASY BASIC ADVANCED EXPERT MASTER
195 - - - - 11

EASY


BASIC


ADVANCED


EXPERT


MASTER

(195){4}
1,1,1,1,
8,8,8,8,
3,7,2,6,
4,5,45,45,
{8}
38,,16,,36,,36,,
27,,4,,27,2,47,,
2,2,24,,15,5,8,,
1h[8:3],,2,3,4,,5,,
6h[16:3],5,7,8,1,,2b,,
{16},{8}
5h[4:1],,7h[4:1],,4h[8:3],,8,3,
,6,,4^1[4:3],,5,6,7,
8,1-4[2:1],,4,3,2h[4:3],,,
,,,6h[4:1],,3,,1,
6,,3,,5-8[2:1],,2,1,
8^5[8:3],7,,6h[4:1],,,,,
8h[8:5]/5h[8:5],,,,,,,15,
,38,27,16,45,,3b/6b,,
47,,1,6,1,,25,4,
,8,,2/3^6[1:2],,,1,,
5h[4:1],,,8,,3,,7,
4h[2:1],,,,,{16},{8},,
4,58,,27,14,36,,5,
1,5-1[8:3],1,,5h[8:9],,,,
4,2,1,8,6^3[8:3],,,,
1h[8:7],,6,5,4,3,,8b,
,4h[8:5]/5h[8:5],,,,,,36,
2h[4:3]/7h[4:3],,,,,,,,
,3b/6b,,,4,,4,,
5,,5,,3h[8:9]/4^7[4:1],,,,
,5,,,6,,6,,
2,,8,7,8-5[8:3],,,,
,6h[8:5],5h[4:1],,,,3,2,
1,,1,,1h[8:5],,,,
3,8,7,6,1/2h[8:5],,,,
,3h[8:3],,,,4h[8:3]/5h[8:3],,,
,36,,,4,1,8,,
45,,5,6,5^2[4:1]/6h[8:5],,,,
,4,,,23,12,18,,
57,,4,3,2^7[4:1]/5h[2:1],,,,
,,1/8h[2:1],2,3,4,3,27,
3,4/6h[8:3],,1,2,3h[4:1]/5^8[4:1],,5,
4,3,2,1,7,8,,36,
,4h[4:1]/5h[4:1],,,{16}5,4,5,4,5,4,,,
{8}1b/8b,,27,,37,4,37,2,
7,3,6,4,36,2,1h[4:1]/6,,
6,,25,3,6,47,,36,
{16},,1h[4:1]/8h[4:1],,,,,,2,7,2,7,2,,,,
{8}18,,3b/6,,18,27,36,27,
4^1[16:1]/5,6,45,4-1[16:1],,6,7h[4:1],,
8,,4h[4:1]/6,7,8,14,,35,
{16},,4h[4:1]/5h[4:1],,,,,,4,5,4,5,4,,,,
17,,28,,,,1,7,8,1,2,8,1,,,,
{8}18,,2/7b,,45,36,27,36,
4/5^8[16:1],3,45,5-8[16:1],,3,2h[4:1],,
1,,5h[4:1]/3,2,1,85,,46,
{16},,4h[4:1]/5h[4:1],,,,,,6,3,6,3,6,,,,
5,3,4,5,6,4b,,,{8}17,24,5,3,
28,57,4,6,,26,3h[4:1]/7h[4:1],,
,,4,4,3,2,,18,
,7h[8:7],,5,4,3,2,1,
8h[8:1],2h[8:7],,4,5,6,7,,
1,,7b/8b,1,8,2,8,2,
3,2,3,5,3,5,6,5,
6,8,6,8,1,8,1,3,
1,3,4,3,4,34,34,34,
{16}56,,4,7,4,7-4[12:1],,,{8}3,3,8-3[12:1],,
,,8^5[16:1],7,8,1,8^3[16:1],,
,,1^4[16:1],2,1,8,1^6[16:2],,
,3,,2-7[8:1],7-2[8:1],2^7[16:3],8^5[16:3],6^3[16:3],
,,2h[1:1],,3,4,5,6,
,7,1h[8:9],,8,8,8,8,
,8,,8-4[4:5],,1,,2,,
3,4,,5,,6-2[4:5],,7,
,8,1,,,2,,3-7[1:1],
4,5,,6,,7,,,
8-4[2:1],1,,2,,,3-7[4:3],,
4,5,6-2[4:1],7,,,,,
8-4[8:1],,1,2-6[8:1],3,4,,,
5,2h[4:1]/7h[4:1],,,18,36,27,,
36,,1h[8:5]/8h[8:5],,,,,,
27,3h[4:3]/6h[4:3],,,,,,,
,,2b/7b,,,8,,8,
,3,56,4,,3h[4:1],,2^7[4:1],
3,24,2h[2:1],,,,1h[8:3],,
,,,7h[16:5]/8-4[16:1],,,,2h[16:5]/6h[16:5],
,,,8,,3,5,7,
,6h[2:1],,1,8,7^2[8:1],,,
,,5,6,7,8,8h[2:1],,
,1,1h[8:3],,,2h[8:5],3^6[8:1],,
,,8b,,,,34,,
34,,78,,3,2,1^6[4:1]/2h[8:5],,
,,,7,,,1/4h[2:1],2,
1,,8-5[4:1],,1,2,3h[2:1],,
,,,1h[2:1]/8,7,6,5,6,27,6,3h[8:3]/5,,8,7,
6h[4:1]/4^1[4:1],,4,5,6,7,8,2,
1,,36,,1h[4:1]/8h[4:1],,,{16}1,8,
1,8,1,8,,,2b/7b,,2,7,{8}1b,,26,
5,26,7,2,6,3,5,36,
7,8h[4:1]/3,,3,,47,6,3,
25,,27,,4h[4:1]/5h[4:1],,,{16}3,6,
3,6,3,6,,,{8}45,,8b/5,,23,
14,85,14,7^2[16:1]/6,5,67,7-2[16:1],,
5,4h[4:1],,3,,7h[4:1]/5,4,3,
27,,68,,6h[4:1]/7h[4:1],,,{16}8,5,
8,5,8,5,,,13,,24,,,,6,7,5,6,
7,8,6,,,,{8}23,,6b/7,,23,14,85,
14,2/3^6[16:1],1,23,3-6[16:1],,1,8h[4:1],
,7,,3h[4:1]/1,8,7,36,,
24,,2h[4:1]/3h[4:1],,,{16}4,1,4,1,4,1,
,,3,1,2,3,4,2b,,,{8}1,4,58,
36,2,7,41,36,,48,1h[4:1]/5h[4:1],
,,,5,5,6,7,,18,
,6h[4:3]/7h[4:1],,,8,1,2,3,
4,3,2h[4:3]/1h[4:1],,,8,7,6,
5,4,,3b/4b,5,6,7h[8:7]/4,3,
2,6,5^2[8:1],,,,,2-5[8:1]/1h[4:1],
,,,6h[8:5],5,4,3,,
8,,1^6[8:1]/8^3[8:1],,18,,,6-1[8:1]/3-8[8:1],
,36,,2b/7b,,1,6,,
4,,1^6[16:1]/5,,4h[4:1],,8^3[16:1],,
5h[8:3],,,4,,3,7,,
1,,4h[4:3],,5,6,7,6,
5h[4:1],6,8h[4:3],,1,2,3,2,
1h[4:1],2,8h[8:7],,1,1,1,1,
,1,,27,,5h[8:5]/8,7,8,
7,8,7,18,,56,,56,
,,,27,,4h[8:5]/1,2,1,
2,1,2,18,,34,,34,
,,,36,,2,6,1,
5,8,4,7,,3,,3,
,,,36,,3,7,4,
8,5,1,,26,15,84,,
37,48,15,36,,1h[8:1],8h[8:1],1h[8:1],
8h[8:1],1h[8:1],8h[8:1],1,,45,,54,
,,,27,,5h[8:1],4h[8:1],5h[8:1],
4h[8:1],5h[8:1],4h[8:1],5,,18,,18,
,,,3/7h[2:1],,,,8h[16:5],
{16},,,4h[16:11],,,,,,,,,,,3h[8:3],,
{8},,5h[8:1],1h[8:1],2h[8:5],,,,
3,6h[8:1],7h[8:1],2,,,,{24}3,4,5,
{8},,,,47,,2,2,
,26,,2/6h[8:7],,2,2,2,
2h[4:1],,,,15,1,1,1,
,15,,1/5h[8:5],,1,1,1,
1h[4:1],,5,,48,,8,8,
,48,,4h[8:7]/8,,8,8,8,
8h[4:1],,,,37,7,7,7,
,37,,3h[8:5]/7,,7,7,7,
7h[4:1],,2^5[16:7],2,,6,6,6,
6h[4:1],,5,,7^4[8:1]/8,,8,8,
,78,,7^4[8:5]/1,,1,1,1,
2h[4:1],,,,1/2^5[8:1],1,1,1,
,12,,2^5[8:3]/8,,8,8,8,
7h[4:1],,5,,5-1[16:1]/4-8[16:1],,45,,
,27,,4/5h[2:1],,1,8,4h[8:3],
5h[4:1],,,,6-1[16:1]/3-8[16:1],36,36,,
,27,,37,,3,6,3,
6h[4:1],,3-7[16:1],6-2[16:1],,6,3,6,
3h[4:1],,6,,1b/8b,18,5,6,
5,6,6,7,8,17,4,2,
35,6,1,1,28,37,46,15,
7-2[24:1]/8-3[24:1],,78,,4-7[24:1]/5-8[24:1],,45,,
13,2,16,6,24,5,8,37,
4^1[60:21],7^4[8:1],2^7[60:21],,,3,,1,
2h[8:1]/6^1[8:1],,2h[8:1],,2h[8:1]/6^3[8:1],,2h[8:1],,
2h[8:1]/8^5[8:1],,2h[8:1],,2h[4:1]/4^7[8:1],,,2h[8:1],
1^6[8:1],2h[8:1],,2,2h[4:1]/3^6[8:1],,,2h[8:1],
,2h[4:1],,,{16},3b/7b,{8},,1h[4:1]/5,
{16},,2,1,8/1h[16:3],,,2,1,8h[16:3],,,1,8,7h[16:3],,
,8,6,5h[16:5],,,3,2,1^6[4:1],,,,4,3,2h[2:1],,
{8},,,,1-4[12:1]/7-4[12:1],,,,
2-5[12:1]/8-5[12:1],,,,,36,27,8,
1,4,7,2,5,1,3,6,
8,7,3,4,{16}1,,5,4,,6,5,,
3,,5,,7,,5,,,,82,,,,
46,7,8,,17,,2,3,46,,5,,5,,
6,,5,,6,,2,1,{8}86,,7h[8:3],,
1,2,,5,4,6,3,2-5[2:1]/7-4[2:1],
,,,,,,,3b/6b,
1b/8b,,,,,,,,
{2},,,E
名前:
コメント:

タグ:

+ タグ編集
  • タグ:

このサイトはreCAPTCHAによって保護されており、Googleの プライバシーポリシー利用規約 が適用されます。

最終更新:2014年02月12日 21:51