Liberation(創作譜面:Bluish_eLvis)

曲名 Liberation
制作者名 Bluish_eLvis
音源 beatmaniaIIDX 20 tricoro
REFLEC BEAT colette
https://www.youtube.com/watch?v=nUwBQz1n_74
譜面動画
制作者コメント あたしって、ほんとバカ
BPM EASY BASIC ADVANCED EXPERT MASTER
150 - - - - 11

EASY


BASIC


ADVANCED


EXPERT


MASTER

(150){16}
6-2[8:1],,1,,3,2,,2,3-7[8:1],,8,,6,7,,7,
6-1[8:1],,2,,4,1,,1,4-1[8:1],,2,,8,1,,1,
6-3[8:1],,4,,1,2,,2,3-8[8:1],,7,,1,6,,6,
6-2[8:1],,1,,3,2,,2,3-7[8:1],,8,,6,7,,7,
6-2[8:1],,1,,3,2,,2,3-7[8:1],,8,,6,7,,7,
6-1[8:1],2,,4,,1,,1,4-1[8:1],2,,8,,1,,1,
6-3[8:1],,4,,1,2,,2,3-8[8:1],,7,,1,6,,6,
6-2[8:1],1,,3,,2,,2,3-7[8:1],8,,6,7,,5b,7,
{8}1b,,,2,,,3,2,3,,,4,,,,{16}7,6,{8}5,,,7,{4},,,{16}1,1,,,8,8,,,7,7,,,
{16}6,2,5,1,4,8,3,7,6,3,8,5,2,7,4,1,
6,4,2,8,6,4,2,8,7,6,5,4,3,2,1,8,
{32}1,2,3,4,5,6,7,8,1,2,3,4,5,6,7,8,1,2,3,4,5,6,7,8,1-4[4:1],2,3,4,5,6,7,8,{4}4-1[4:1],1-5[4:1],5-1[4:1],,
{4}1/3h[16:3],4h[16:3],5h[16:3],2/6h[16:3],{8}3/7h[16:3],,8h[16:3],4,1h[16:3],,5/2h[16:3],,4/3h[16:3],,4h[16:3],7,
{4}5h[16:3],5/6h[16:3],3/7h[16:3],8h[16:3],{8}1h[16:3],5,6/2h[16:3],7,
8-3[4:1],5-1[4:1],8,5,{2},
{8}3-8[4:1],6-1[4:1],3,6,{2},
{8}7-4[4:1],5-2[4:1],4,1,{4},{8},{16}8,8,8,,7,7,7,,6,6,6,,{24}5,6,7,{16}8,1,2,3,
4h[2:1],,6,6,,,5,,5,,4/6,6,3,,2/5,,1h[4:1]/5,,7,7,,,6/3h[4:1],,6,,7,7,
8h[8:1],,6,,8h[4:1]/6,,2,2,,,3/7h[4:1],,3,,2,2,6h[8:1],,3,,3/8h[4:1],,3,3,,,4/7h[4:1],,4,,3,3,1h[8:1],,4,,
4h[2:1],,6,6,,,5,,5,,4/6,6,3,,2/5,,1h[4:1]/5,,3,3,,,4/7h[4:1],,4,,3,3,
8h[8:1],,4,,{8}1-5[8:1],2-6[8:1],3-7[8:1],2,1,2,3,4-1[4:1],8,5,1,4,2,3,7,6,
8^5[4:1],6,4^1[4:1],2,8^3[4:1],2,4^7[4:1],6,
1^4[4:1],3,5^8[4:1],7,1^6[4:1],7,5^2[4:1],3,
2^5[4:1],4,6^1[4:1],8,2^7[4:1],8,6^3[4:1],4,
3^6[4:1],5,7^2[4:1],1,{16}2,3,4,5,6,7,8,,
{8}8-3[4:1],6,4-7[4:1],2,8-5[4:1],2,4-1[4:1],6,
1-6[4:1],3,5-2[4:1],7,1-4[4:1],7,5-2[4:1],3,
2-7[4:1],4,6-3[4:1],8,2-5[4:1],8,6-1[4:1],4,
3-8[4:1],5,7-4[4:1],1,{16}2,3,4,5,6,7,8,,

{4}8-5[4:1],5-2[4:1],2-7[4:1],7-4[4:1],
4-1[4:1],1-6[4:1],6-3[4:1],3^8[4:1],
8-4[4:1],4^7[4:1],7-3[4:1],3-6[4:1],
6^1[4:1],1-5[4:1],5-2[4:1],2-7[4:1],
{8}7-4[4:1],7,4-1[4:1],4,1^6[4:1],1,6^3[4:1],6,
3-8[4:1],3,8^3[4:1],8,3^6[4:1],3,6-1[4:1],6,
1^6[4:1],1,6^3[4:1],6,3-6[4:1],3-8[8:1],,,{4}6b/8b,2b/7b,{2},

{16}1,2,3,4,5,6,7,8,1,2,3,4,5,6,7,8,
4,3,2,1,8,7,6,5,4,3,2,1,8,7,6,5,
7,8,1,2,3,4,5,6,7,8,1,2,3,4,5,6,
7-2[4:1],7,,,2-5[4:1],2,,,5-1[4:1],5,,,1-4[8:1],1,,,
5,6,7,8,1,2,3,4,5,6,7,8,1,2,3,4,
2,1,8,7,6,,7,8,1,2,3,,3,4,5,6,{8}7,,,1,,,{4}6,{2}4,{8}1,8,7,6,
{16}5-2[4:1],5,,,2-7[4:1],2,,,7-4[4:1],7,,,4-1[4:1],4,,,1-6[8:1],1,,,
1,2,3,4,8,7,6,5,8,1,2,3,
4,5,6,7,4,3,2,1,8,7,6,5,8,1,2,3,
{16}4-8[4:1],4,,,8-4[4:1],8,,,4^7[4:1],4,,,8^3[4:1],8,,,
{16}7,3,8,4,1,5,2,6,7,3,8,4,1,5,2,6,
7,2,5,8,3,6,1,4,7,1,3,5,7,1,3,5,
{32}7,8,1,2,3,4,5,6,7,8,1,2,3,4,5,6,7,3,8,4,1,5,2,6,7-2[4:1],3,8,4,1,5,2,6,{4}1-4[4:1],3-6[4:1],5-8[4:1],,
{16}
6-2[8:1],,1,,3,2,,2,3-7[8:1],,8,,6,7,,7,
6-1[8:1],,2,,4,1,,1,4-1[8:1],,2,,8,1,,1,
6-3[8:1],,4,,1,2,,2,3-8[8:1],,7,,1,6,,6,
6-2[8:1],,1,,3,2,,2,3-7[8:1],,8,,6,7,,7,
6-2[8:1],,1,,3,2,,2,3-7[8:1],,8,,6,7,,7,
6-1[8:1],2,,4,,1,,1,4-1[8:1],2,,8,,1,,1,
6-3[8:1],,4,,1,2,,2,3-8[8:1],,7,,1,6,,6,
6-2[8:1],1,,3,,2,,2,3-7[8:1],8,,6,7,,5,7,
5,4,3,,1-5[8:1],,5,8,,8,4,,3,,2,,
4,5,6,,8-4[8:1],,4,1,,1,5,,6,,7,,
4,3,2,,1-5[8:1],,4,8,,8,4,,3,,2,,
5,6,7,,8-4[8:1],,5,1,,1,5,,6,,7,,
1,5,2,6,3,7,4,8,1,4,7,2,5,8,3,6,
1,3,5,7,1,3,5,7,1,2,3,4,5,6,7,8,
{32}1,2,3,4,5,6,7,8,1,2,3,4,5,6,7,8,1,4,7,2,5,8,3,6,1,4,7,2,5b,E

名前:
コメント:

タグ:

+ タグ編集
  • タグ:

このサイトはreCAPTCHAによって保護されており、Googleの プライバシーポリシー利用規約 が適用されます。

最終更新:2014年01月08日 03:37