セツナトリップ

アーティスト Last Note.

BPM EASY BASIC ADVANCED EXPERT MASTER
145 2 5 6 11 13

EASY


BASIC

(145.0){1},
{1}6h[2:1],
{1}5h[2:1],
{1}4h[2:1],
{2}3,2/3,
{1}2h[2:1],
{1}1h[2:1],
{1}8h[2:1],
{4}7,7,7,,
{1}1-4[2:1],
{1}5-8[2:1],
{2}1,1,
{2}2,2,
{1}3-6[2:1],
{1}7-3[2:1],
{2}1,2,
{2}3,4,
{1}4-1[2:1]/5-8[3137:1593],,
{2}1,8,
{1}7,
{2}7,6,
{1}5,
{2}5,4,
{4}3,3,3b,,
{4}2,2h[2:1],,,
{4}3,3h[2:1],,,
{2}4,5,
{2}6,5/6,
{1}7h[2:1],
{1}8h[2:1],
{2}7/8,1/8,
{1}1h[2:1]/2h[2:1],
{1}8-5[2:1],
{2},4/5,
{1}4-8[2:1],
{4},,1,1,
{1}1/2,
{1}3/4,
{2}5,6,
{1}7b/8b,
{2}1,8,
{4}7,7,6/7,,
{2}6,5,
{4}4,3,3b/4b,,
{2}2,1,
{1}1-4[2:1]/8-5[2:1],
{4}6,6,7,7,
{1}8h[2:1],
{2}1b/8b,1b/8b,
{4}7,7,7,,
{2}7/8,1/2,
{4}3,3,3/4,,
{2}5,4,
{4}3,2,3,,
{2}1,2,
{2}8,7,
{4}8,8,1,1,
{2}1/8,1b/2b,
{4}2,2,3,,
{4}4,4,4,,
{4}5,5,6,,
{1}4h[2:1]/5h[2:1],
{4}7,7,6,,
{4}5,4,3,,
{2}2,1,
{4}1,1,1b,,
{1}1-4[4:3]/8-5[4:3],,
E

ADVANCED

(145.0){1},
{4}8,1,2,,
{4}1,2,3,,
{4}2,3,4,,
{4}3,4,5,6,
{4}4,5,6,,
{4}5,6,7,,
{4}6,7,8,8,
{4}1,8,1/8,,
{4}1,2,1/2,,
{4}3,4,3/4,,
{2}5h[2:1],6h[2:1],
{4}7h[2:1],,8,8,
{4},1,1,1,
{4},2,2,2,
{2}2/3,6/7,
{4}5/6,4/5,3/4,2-7[2:1],{1},,
{4}8,7,6,,
{4}7,6,5,,
{4}6,5,4,,
{4}5,4,3/5,,
{4}4,3,2,1,
{4}8,8,8b,,
{4}8,8,7,7,
{4}6,6,5,,
{2}4h[2:1],3h[2:1],
{4}2h[2:1],,1,1,
{4},8,8,8,
{4},7,7,7,
{2}7/8,6/7,
{1}4-1[16:5]/5-8[16:5],
{8}8,,,7,7,,,,
{8}1,,,2,2,,,,
{8}6,,,5,5,,,,
{8}3,,,4,4,,5,,
{1}6-3[8:3],
{1}2-7[8:3],
{4}1,1,8,8,
{1}4h[4:3]/5h[4:3],
{2}1/2,3/4,
{4}4/5,5/6,6b/7b,,
{2}3/4,2/3,
{4}1/2,1-6[4:1]/2-5[4:1],,,
{4}4,4,3,3,
{4}2,2,1,1,
{4}1/2,3/4,7/8,,
{2}1h[2:1],5h[4:1],
{1}2b/7b,
{4}7/8,1/8,1/2,,
{2}3/4,5/6,
{4}7/8,7-4[4:1]/8-3[4:1],,,
{4}8,7,6,5,
{4}1,2,3,4,
{4}6,6,3,3,
{2}7h[2:1],2h[2:1],
{4}8,8,4,5,
{4}1h[2:1],,8,7b,
{4}8,7,8,7,
{4}6,5,6,5,
{4}4,3,4,3,
{4}2,2,1h[4:1],,
{4}1,2,1,2,
{4}3,4,3,4,
{4}5,6,5,6,
{4}6/7,,,6-3[2:1]/7-2[2:1],,,,
E

EXPERT

(145.0){1},
{8}8,8,2,2,6,6,3/4,,
{8}5,5,2,2,4^7[8:1],,,,
{8}1,1,7,7,3,3,5/6,,
{8}4,4,7,7,5^2[8:1],,,,
{8}1,2,8,7,3,4,5/6,,
{8}4,3,5,6,8^3[8:1],,,,
{8}7,8,2,1,5,6,3/4,,
{8}5,6,4,3,1^6[8:1],,,,
{16}8h[4:1],,,,7h[16:3],,,6h[16:3],,,5,,5/6,,,,
{16}1h[4:1],,,,2h[16:3],,,3h[16:3],,,4,,3/4,,,,
{16}5h[4:1],,,,6h[16:3],,,7h[16:3],,,8,,7/8,,,,
{16}4h[4:1],,,,3h[16:3],,,2h[16:3],,,1,,1/2,,,,
{16}8h[4:1],,,,2h[16:3],,,4h[16:3],,,6,,5/6,,,,
{16}1h[4:1],,,,7h[16:3],,,5h[16:3],,,3,,3/4,,,,
{16}4h[4:1],,,,2h[16:3],,,8h[16:3],,,6,,5/6,,,,
{16}5h[4:1],,,,7h[16:3],,,1h[16:3],,,3,,3/4,,,,
{8}2,5,3,4,8,6,1,7,
{8}3,5,4,6,8^3[8:1],8,,,
{8}8,2,7,1,6,8,5,4,
{8}6,4,5,3,1^6[8:1],1,,,
{8}5,3,6,4,7,5,8,1,
{8}8,2,1,3,5^2[8:1],5,,,
{8}4,6,3,5,2,4,1,8,
{8}5/6,5/6,3/4,3/4,1/8,,2b/7b,,
{16}7,,8,,1h[16:3],,,2,,,3/4,,5/6,,,,
{16}3,,4,,5h[16:3],,,6,,,7/8,,1/2,,,,
{16}8,,4,,6,,,2,,,5/6,,3/4,,,,
{16}1,,5,,3,,,7,,,1,,8,,1b,,
{2}8-4[4:1],6-2[4:1],
{4}7h[4:1],6h[4:1],5h[4:1],2h[4:1],
{8}1b,,,7/8,1/6,7/8,,2/8,
{4}1/5,2/6,3b/7b,,
{8}2h[8:3],,,1,3/4-8[8:1],,,,
{8}7h[8:3],,,8,6/5-1[8:1],,,,
{8}2h[8:3],,,1,3/4-8[8:1],,,,
{8}7h[8:3],,,2,1-4[8:1]/8-5[8:1],,,,
{8}8h[8:3],,,7,6/5-8[8:1],,,,
{8}1h[8:3],,,2,3/4-1[8:1],,,,
{4}8h[4:1],6h[4:1],4h[4:1],2h[4:1],
{8}8h[8:3],,,4h[8:3],,,1b,,
{8}7-2[8:1],,,4,5-2[8:1],,,8,
{8},7/8,7/8,5/6,3/4,1/2,7b/8b,,
{8}7,6,5,4,3h[4:1],,2h[4:1],,
{4}1,7-4[8:1]/8-4[8:1],,,
{8}6-3[8:1],,,1,8-4[8:1],,,5,
{8},1/2,1/2,3/4,5/6,7/8,1b/2b,,
{4}7/8,7/8,6-2[8:1],3-7[8:1],
{4},1^4[4:1]/8^5[4:1],,,
{8}2-7[8:1],,,5,4-1[8:1],,,8,
{8},3/4,5/6,7/8,5/6,3/4,1b/2b,8,
{8}1,2,3,4,5h[4:1],,6h[4:1],,
{8}7,,1-5[8:1]/2-5[8:1],,,,,4,
{8}3-6[8:1],,,8,1-4[8:1],,,5,
{8},1/2,7/8,5/6,3/4,5/6,7b/8b,2,
{8}1/2,7,7/8,3,4-8[8:1],,5-1[8:1],,
{8},,1^4[4:1]/8^5[4:1],,,,,7-4[8:1],
{8}7,1-4[8:1],1,8-4[8:1],8,,,,
{2}1^4[8:1]/5^8[8:1],1^6[8:1]/5^2[8:1],
{8}3,3,8,8,2,2,5,5,
{8}1,1,6,6,4,4,7,7,
{8}2h[8:3],,,8,8,,,,
{8}1,3,5,7,1h[4:1],,8b,,
{8}1,2,8,7,2,3,7,6,
{8}3,4,6,5,4,5,2,7,
{4}1-5[8:1],7-3[8:1],8^3[8:1],6b,
{16}1/3,,,2/7,,,6/8,,,5/7,,,4b/2-6[4:1],,,,,,,,,
E

MASTER

(145){16}
1,,3,4,,6,5,,7,,2,,8,1,8,1,
8,,6,5,,3,4,,2,,7,,1,8,1,8,
1,,7,8,,2,1,,3,,6,,5,4,6,3,
8,,2,1,,7,8,,1,8,1,8,1,7,2,8b,
3,,6,5,,3,4,,3,,6,,4,5,4,5,
2,,7,8,,2,1,,6,,3,,5,4,5,4,
8,,2,1,,3,4,,8,,7,,6,5,6,,
5,,4,,3,,2,,1-5[8:1]/8-4[8:1],,,,,,,,

3,,2,,1,,8,1,,5,4,,56,,34,,
2,,3,,4,,5,4,,8,1,,78,,12,,
6,,7,,8,,2,1,,5,6,,34,,78,,
17,,28,,56,,3,4,,4,3,,48,,1b/5b,,
,,1,8,2,,8,1,7,,4,5,3,,5,4,
6h[4:1],,,,5h[4:1],,,,4h[4:1],,,,3h[2:1],,,,
6h[4:1],,,,,,3^8[8:1]/8^5[8:1],,38,,,,,,26,,
37,,,,1^4[8:1]/5^8[8:1],,,,,,,,,,,,

1,,1,5,,8,4,,6,,7,,3,2,3,4,
2,,8,4,,1,5,,48,,37,,26,,15,,
8,,7,3,,2,6,,3,,2,,7,6,7,8,
6,,2,6,,7,3,,15,,26,,37,,48,,
2,,3,3^8[8:1],,,4,,7,,6,,5,,4,,
6,,7,7^4[8:1],,,8,,3,,2,,1,,8,,
1,8,1,8,2,7,2,7,1,6,1,6,3,8,3,8,
18,,67,,45,,23,,8-4[8:1]/7-3[8:1],,,,,,,,

34,,25,,16,,7,8,,4,3,,46,,28,,
3,,6,,4,,1,8,,8,1,,57,,13,,
3^6[4:1],,2,,1,,8,8,,7,7,,34,,56,,
7^2[4:1],,5,,4,,3,3,,2,2,,78,,1b/2b,,
,,2,8,1,,6,4,5,,2,4,3,,7,1,
{8}
8-4[8:1],,2-6[8:1],,3-7[8:1],,,,
18,,,48,37,26,,15,
37,,2-6[8:1]/8-4[8:1],,,,,,

2-6[8:1],,1-5[8:1],,8-4[8:1],,,,
1^6[8:1],,1^4[8:1],,1^6[8:1],,,,
7-3[8:1],,8-4[8:1],,1-5[8:1],,,,
1h[4:1]/8h[4:1],,,,1-5[8:1]/8-4[8:1],36,,,
2h[4:1],,3,4h[8:3],,,8h[4:1],,
1h[4:1],,2,7h[8:3],,,8b,,
2-6[8:1],6-2[8:1],,,7-3[8:1],3-7[8:1],,,
{16}
18,,,1-5[8:1]/8-4[8:1],,,,,,,,,,,8,4,

8,,,15,,,26,,37,,,48,,,67,,
,,6b/8b,,2b/3b,,1b/3b,,5b/6b,,3b/4b,,1b/8b,,2,3,
2,,7,6,7,,4,5,4,,67,,18,,23,,
5,,6,,7-4[8:1]/8-4[8:1],,,,,,,,,,2,1,
3,,,78,,,14,,36,,,78,,,23,,
,,3b/1b,,7b/6b,,8b/6b,,4b/3b,,6b/5b,,8b/1b,,2,1,
3,,7,8,6,,4,5,3,,58,,27,,36,,
1h[4:1]/4h[4:1],,,,,,,,18,,,,,,,,

18,,,27,,,4-1[8:1]/5-8[8:1],,36,,,,,,8h[4:1],,
,,2-6[8:1],,6-2[8:1],,2^5[8:1],,6^1[8:1],,,,,,3,4,
5,,7,6,5,,2,3,4,,56,,78,,12,,
3,,8,,1-5[8:1]/2-5[8:1],,,,,,,,,,2,1,
3,,,78,,,1-5[8:1]/2-6[8:1],,38,,,,,,2h[4:1],,
,,7-3[8:1],,3-7[8:1],,7^4[8:1],,3^8[8:1],,,,,,6,5,
4,,8,1,2,,7,6,5,,78,,56,,34,,
1h[4:1]/2h[4:1],,,,,,,,7b/8b,,,,,,2,3,
4,,1,8,7,,5,4,3,,6,,7,,8,,
1h[4:1]/2h[4:1],,,,,,,,3-8[8:1]/4-7[8:1],,,,,,,,

5,,6,5,,,2,1,2,,78,,,,,,
3,4,3,5,4,5,4,6,5,6,5,7,2,8,1,7,
2h[8:3],,,,,,8,1,7h[4:1],,,,,,,,
4,5,3,6,3,5,4,6h[16:5],,,,,1b,,,,
1,2,8,7,2,3,7,6,3,4,6,5,1,2,8,7,
2,1,2,1,3,8,3,8,4,7,4,7,5,6,5,6,
1,5,2,6,3,7,4,8,3,7,2,6,1,5,8,4,
15,,,26,,,37,,,4,8,,5-2[8:1]/6-1[8:1],,47,,

{1},,,,
E

名前:
コメント:

タグ:

+ タグ編集
  • タグ:

このサイトはreCAPTCHAによって保護されており、Googleの プライバシーポリシー利用規約 が適用されます。

最終更新:2022年07月02日 22:43