Won(*3*)Chu KissMe!(創作譜面:shimelar)

曲名 Won(*3*)Chu KissMe!
制作者名 shimelar
音源 ---
譜面動画
制作者コメント
BPM EASY BASIC ADVANCED EXPERT MASTER
153 2 4 5 8 10

EASY


BASIC


ADVANCED


EXPERT

(153){8}3b,,,6b,,,2b,,
8,,,,5^8[8:1]/3^8[8:1],,,,
1,,2,,3,,4,,
5,,6,,7,,8,,
1,,7,,2,,6,,
3,,5,,4,,8,,
1,2,3,,7,,5,,
7,2,7,,6,,3,,
1,5,1,,4,,5,,
,8,,4,,37,26,,
5,,4,,,4^7[2:1],,3,
,3,2,1,8^3[4:1],,,,
4,,2,8,,7,,5^2[8:3],
,6,7,8,1^6[8:1],,,,
5h[8:3],,7,8h[4:1],,1h[4:1],,8h[4:1],
,7,6,5,4,,,,
3h[4:1],,2,1h[4:1],,8h[4:1],,1h[2:1],
,8,,2-5[8:1],,,,,
5h[8:5]/4h[4:1],,,6,,7,,1h[8:3],
,3,4,5,4,,34,,
5/4h[4:1],,3,2h[4:3],,1,,8h[4:1],
,,8,7,6-3[8:1],,,,
4,,67,78,,1,,3h[4:1],
,2,1,8,7-2[8:1],,,,
3,,34,56,,78,81,1-5[2:1]/2-6[2:1],
,12,,,,,,,
6,,6,7h[4:1],,8h[4:1],,1-5[4:1],
,2,,4h[8:3],,3,3,5,
6h[2:1],,7,7-3[2:1],,,1-5[2:1],1,
,,,,,,,,
1,,1,2h[4:1],,3h[4:1],,4-8[10:1],
,,5h[8:1],6h[4:1],,7,,,
5-8[2:1]/6-2[2:1],,,,,,,,
,3,4,3,2h[8:1],1h[8:3],,,
8h[8:3],,,1h[4:5],,,8,,
7,6,7,8,,,1b/8b,,
7,,7,6,,6,,5h[4:1],
,4^7[8:1],3,2,1,,,,
8h[8:3],,2,2h[2:1],,5,,5h[4:1],
,6,7,4,1,,,,
78,,12,18,,27,,3-7[2:1]/6-2[2:1],
,,,,,,,,
7h[4:1],,6,7/8h[4:1],,1,,1h[8:3],
,,7,,3^6[8:1],,2-6[8:1],,
1h[4:1],,5,6h[4:1],,7h[8:1],8h[8:1],1h[8:3],
2h[4:1],,,,1-4[8:1]/2-7[8:1],,,,
56,,12,81,,18,,8^3[6:1],
,6,5,4,3^6[10:1],,,,
78,,13,26,,5h[4:1],,4h[4:1],
,5h[8:1],4h[2:1],2,1h[4:1],,,,
7,,2,13,,86,,1-6[16:11]/3-6[16:11],
,,,,,,,,
3h[4:1],,5h[8:3],6,,4,,2h[8:3],
,,1h[4:1],,8h[4:1],,7h[4:1],,
6b,,,3b,,,7b,,
1,,,,6^1[8:1]/4^1[8:1],,,,
{1},
E

MASTER

(153){8}2b,1,1,7b,8,8,2b,1,
8^3[2:1]/1^6[2:1],,,,,,,,
{16}27,,1,,8,,7,6,7,6,7,,5,,4,,
3,,2,,1,,2,1,2,1,2,,1,8,7,6,
5,,4,,5,,4,3,2,3,2,,8,,7,,
6,,5,,6,,7,8,1,8,1,,3,2,1,8,
1,,3,,4,,5,6,7,6,5,,7,,8,,
1,,2,,1,,2,3,4,3,2,,1,8,7,6,
5,,6,,4,,5,4,3,5,4,,3,,7,,
{8},15,,48,,1b/5b,3b/7b,,
{8}3,,6,5,,4,,1^6[8:1],
{16},,2,,3,,4,5,4,,3,,67,,,,
{8}5,,6,3,,4,,8^3[8:1],
{16},,7,,6,,5,4,5,,6,,23,,,,
{8}4h[4:1],,8h[8:3],7,,1,,5h[8:3],
{16},,2,,1,,8,7,8,,1,,21,,,,
{8}6h[4:1],,1h[8:3],2,,8,,7,
{16},,7-4[12:1],,,,1,1,2,,3,,18,,,,
3,,4,,5,,5,6,5h[4:1],,4,,3,,2,1,
{8}2h[4:1],8,7,6,7,,78,,
{16}7,,6,,5,,6,5,6h[4:1],,5,,4,,4,3,
{8}4h[4:1],3,2,4,5,,12,,
{16}7,,2,,8,,1,8,1h[4:1],,2,,3,,5,4,
{8}5h[4:1],6,7,5,4,,54,,
{16}8,,7,,6,,4,3,4,,54,,65,,3,,
{8}1,73,1,37,8,26,37,,
8^5[16:17]/1h[4:1],,,2,,3,,1-5[8:1],
,1,,4h[4:1],,1^4[4:1],4,1,
7h[4:1],,,8-4[8:1],,1-5[8:1],,8-3[8:5],
,,,,6h[4:1],,,,
7h[2:1],,8-3[8:1],8,,1-5[12:1],,3-7[12:1],
,,5-8[8:1],5h[4:1],,,,,
7-2[16:9]/1^4[16:1],,,,6-3[16:1],,,,
,14,58,67,67,5h[4:1]/8h[4:1],,,
37,,15,26,,15,48,,
37,48,15,26,3,{32}5,6,7,8,{8}1b/2b,,
{16}36,,3h[8:1]/6,,8,,7/4-1[24:1],,5h[4:1],,4,,,,2,3/6h[16:3],
2,,1^4[8:1],,8,,8,,{8}6,,37,,
5h[8:3],6,7,8,4h[8:3],3,2,1,
83,27,1-5[8:1]/6-2[8:1],25,,,,,
{16}2h[8:1],,4h[8:1],,6,,1,8,7h[8:1],,5h[8:1],,3,,8,1,
{8}2h[8:1],4h[8:1],6,78,1^6[12:1]/8-3[12:1],,,,
7h[4:1],,8h[8:1],3h[4:1],,5h[4:1],,2-5[12:1],
,,7-4[12:1],,1-5[12:1],,8,,
8-5[12:1],,8,1-4[12:1],,2,3,4h[8:3],
5h[4:1],,,,4^7[16:1]/5^2[16:1],,,,
{16}36,,3h[8:1]/6,7,8,,4-1[24:1],,5h[4:1],,4,,,,2,3/6h[16:3],
2,,1,,8,,18,2,6,,,,37,,,,
3,,4,,3,,7,6,5,,6,,5,,2,3,
{8}4,5,54,36,2-5[16:1]/7-4[16:1],,27,,
6^1[12:1]/4^1[12:1],,,,5^8[12:1]/3^8[12:1],,,,
6-2[8:1],2-7[8:1],7-3[8:1],3-6[8:1],6^3[8:1],,,,
6h[8:3],,5,4,,4^1[12:1],,5^8[12:1],
,,4-8[12:1],,5-1[12:1],,8,2,
3b,,2,6b,,7,1b,8,
6-1[12:1]/4-1[12:1],,,,,,8b,2b,
{1},
E

名前:
コメント:

タグ:

+ タグ編集
  • タグ:

このサイトはreCAPTCHAによって保護されており、Googleの プライバシーポリシー利用規約 が適用されます。

最終更新:2014年01月14日 14:25