Got More Raves?(創作譜面:Bluish_eLvis)

曲名 Got More Raves?
制作者名 Bluish_eLvis
音源 GROOVE COASTER ARCADE
http://www.nicovideo.jp/watch/sm22554737
http://www.nicovideo.jp/watch/sm22477411
譜面動画
制作者コメント 表譜面はわかりやすい音合わせに対し
裏譜面でどの音からノーツのリズムとってんだって言われるような(=L'epilogue[MAS]みたいな)
ひねくれた合わせをする構成がボクは気に入ってたりします。
こういう言い方してますが太鼓の経験はそんなにありません、むしろANOTHERで曲のアレンジが変わってた時代が懐かしい。
BPM EASY BASIC ADVANCED EXPERT MASTER
266 - - - 12 (12)

EASY


BASIC


ADVANCED


EXPERT - trace

(266){4}7-2[4:1]/3-6[4:1],,,6^3[4:1],,,2^7[4:1],,,1-5[8:1],7-3[8:1],2-6[8:1],,,5-2[4:1],1-6[4:1],,5b,1b,6b,78,34,12,
{8}5,6,8,4,7,,1,4,3,2,1,8,,2,5,3,6,4,7,,5,8,4,1,,7,6,2,3,,7,4,6,3,5,2,,2,5,6,8,4,7,,4,1,5,8,
1,2,4,8,3,,5,8,7,6,5,4,,6,1,7,2,8,3,,1,4,8,5,,8,5,1,4,,3,8,2,7,1,6,8,7,6,5,4,,
1,3,4,2,4,5,8,5,7,6,,8,6,5,7,5,4,1,3,2,,8,6,5,7,5,4,1,4,2,3,,1,3,4,2,4,5,8,6,7,,
8,6,5,7,5,4,1,4,2,3,,1,3,4,2,4,5,8,6,7,,1,3,4,2,4,5,8,5,7,6,,8,6,5,7,5,4,1,3,2,,
1b,,,1b,,,1b,,,,,6h[4:7]/7h[4:7],,{2},,,,,{8}4,5,1,8,2,7,3,6,4,5,3,6,2,7,1,8,2,7,3,{4},6b,6b,
{8}5,4,3,2,1,,4,5,6,7,8,,4,3,2,1,8,,5,6,7,8,1,,
{24}8,7,6,5,4,3,2,1,8,7,6,5,4,5,6,7,8,1,2,3,4,5,6,7,8,1,2,3,4,3,2,1,8,7,6,5,
{2},{4},{8}1,8,2,7,3,6,4,5,{2}4,2h[4:5]/7h[4:5],,,
{8}3^6[4:1],,,6-3[4:1],,,2-7[8:1],,7^2[8:1],,3-7[8:1]/7-3[8:1],,,3-7[8:1],,7-2[8:1],,3-6[8:1],6-3[8:1],,
3-6[4:1],,,6-1[4:1],,,1-5[8:1],,1-6[8:1]/6-1[8:1],,16,,,7,8,1,2,3,4,5,
6^3[4:1],,,3^8[4:1],,,8-4[8:1],,8-3[8:1]/3-8[8:1],,38,,,2,1,8,7,6,5,4,
35,46,,45,,3-8[8:1],5-8[8:1],,6-1[8:1],4-1[8:1],1b,,13,13,,1h[4:1]/3h[4:1],,,68,68,,6h[4:1]/8h[4:1],,,
3-6[2:1],,,6-2[4:1],,,2^7[8:1],,2-7[4:1]/7-2[4:1],,27,,,2-5[4:1],,6-3[8:1],3-6[8:1],,,,
6-3[2:1],,,3-7[4:1],,,3^6[8:1],,3-6[4:1]/6-3[4:1],,36,,,7,8,1,2,3,4,5,
2-7[2:1],,,5-2[4:1],,,3-7[8:1],,3-6[4:1]/6-3[4:1],,36,,,3-8[8:1],,,3/8^3[4:1],,6,,
58,58,,14,{4},36,27,36,,4b,2b,7b,1b,,{8}45,45,,18,{4},23,14,58,67,,1b,8b,7b,
{8},27,27,,36,,18,18,,45,,45,,,8,1,7,2,{4}6,3,2b,{8},67,67,,58,,23,23,,67,,58,,18,23,1,8,7,6,,5,,
5h[4:9]/4,,,,4,,4,,3,,,3,,3,3,,3,,3,,3h[4:9]/6,,,,6,,6,,7,,,7,,7,7,,7,,7,,7h[4:9]/2,,,,2,,2,,1,,,1,,1,1,,1,,1,,1h[4:9]/8,,,,8,,8,,8,,,8,,8,8,,8,,8,,
1,3,4,2,4,5,8,5,7,6,,8,6,5,7,5,4,1,3,2,,8,6,5,7,5,4,1,4,2,3,,1,3,4,2,4,5,8,6,7,,
8-4[4:3],6,5,7,5,4,1,4,2,3,,1,3,4,2,4,5,8,6,7,,1-5[4:3],3,4,2,4,5,8,5,7,6,,8,6,5,7,5,4,1,3,2,,
4,,,5,,1,8,2,7,3,6,,3-6[8:1],,,7-2[8:1],,,2-5[8:1],,6-1[8:1],,3-6[8:1],,,1-6[8:1],,,7-4[8:1],,8-3[8:1],,
3-6[8:1],,,7-2[8:1],,,1-4[8:1],,8-5[8:1],,7-4[8:1],,,1-6[8:1],,,5-2[8:1],,3-8[8:1],,
3-7[2:1],,,7-2[8:1],,,4-7[8:1],,5-2[8:1],,6-2[2:1],,,2-7[8:1],,,1-6[8:1],,8-3[8:1],,
2^7[2:1],,,7-2[8:1],,,3-6[8:1],,6^3[8:1],,7b,,45,45,,4h[4:1]/5h[4:1],,,18,18,,1h[4:1]/8h[4:1],,,
4-8[2:1],,,4^1[4:1],,,5^8[4:1],,5-1[8:1],,1-5[2:1],,,8^5[4:1],,,1^4[4:1],,8-4[8:1],,
2-7[2:1],,,5-2[4:1],,,3-7[8:1],,6-2[8:1],,2-7[8:1],,,8,1,2,3,4,5,6,
5-1[2:1],,,5^8[4:1],,,4^1[4:1],,4-8[8:1],,8-4[2:1],,,1-5[2:1],,,5-8[8:1],,4-1[8:1],,
8b,,1,2,3,4,5,6,,5,4,3,2,1,,,8,7,6,5,4b,,4b,,
8-4[4:3],6,5,7,5,4,1,4,2,3,,1,3,4,2,4,5,8,6,7,,1-5[4:3],3,4,2,4,5,8,5,7,6,,8,6,5,7,5,4,1,3,2,,
1-4[2:1],3,4,2,4,5,8-4[2:1],5,7,6,,8-5[2:1],6,5,7,5,4,1-5[4:1],3,2,,
4-7[16:1],5-2[16:1],2-7[16:1],7-2[16:1],2-5[16:1],7-4[16:1],4-7[16:1],5-2[16:1],2-7[16:1],7-2[16:1],,
1-6[16:1],8-3[16:1],3-8[16:1],6-1[16:1],3-6[16:1],6-3[16:1],1-6[16:1],8-3[16:1],3-6[16:1]/1-4[16:1],,,E

MASTER

(266){1},,,,,,,{8}1b,6,,6,4,,8b,,3,,3,5,2b,6,4,6,,,7b,3,5b,3,1b,4,,,6,5,8b,,8b,,42,,76,,
{16}3,5,3,5,3,5,3,5,{4}4b/1b,4b/1b,4b/1b,
{2}2-7[2:3],,,8-4[2:3],,,{4},5-1[2:3],{2},,,{4},1-5[4:1],{8},8,,,
{8}5,,1,,5,1,5,,51,,1,,5,1,,,41,,41,8,4,8,4,,48,,8,,4,8,5,8,48,,8,,51,1,1,1,51,,
8,6,4,2,8,4,8,5,84,8,4,1,8,4,5,2,14,6,14,5,1,5,1,3,15,7,5,3,1,5,8,5,15,3,5,6,84,4,4,4,84,,
1,2,4,8,3,,5,8,7,6,5,4,,6,1,7,2,8,3,,1,4,8,5,,8,5,1,4,,3,8,2,7,1,6,8,7,6,5,4,,
{8}3,3,,3,,,3,,6,,6,8h[2:5],7,7,6,6,,6,,,6,,2,,2,,3,3,6,6,,6,,,6,,3,,3,,2,2,3,3,,3,,,3,,7,,7,,6,6,
{8}3,3,5^2[4:1],3,,,3,,6/4^7[4:1],,6,,7,7,6/4^1[4:1],6,,6,,,6/5^8[4:1],,2,,2,,
{16}8,1,8,1,8,1,8,1,8,1,8,1,8,1,8,1,8,1,8,1,8,1,8,1,8,
{2},{4},{8}1,8,2,7,3,6,4,5,{2}4,3h[4:5]/6h[4:5],,,
{8}7/5h[4:1],,,41,,,23,,48,,2h[4:1]/7h[4:1],,,5h[4:1]/7,,8,3,7,26,,
4h[4:1]/5,,,2h[4:1]/6,,,38,,17,,6h[4:1]/5b,,,67,8,1,72,3,84,5,
6h[4:1],,,8h[4:1],,,7,,1,,3h[4:1],,,2,1,8,7,6,5,4,
35,46,,45,,2-5[8:1],8-5[8:1],,7-4[8:1],1-4[8:1],1b,,35,35,,3-6[16:1]/5-1[16:1],,,47,47,,4-8[16:1]/7-2[16:1],,,

5h[2:1],,,3h[4:1],,,4h[4:1],,2h[8:1],,6h[4:1],,,6h[4:1],,7h[4:1],6h[4:1],,,,
4h[2:1],,,6h[4:1],,,5h[4:1],,7h[8:1],,8h[8:3],,,1,2,3,4,5,6,7,
5h[2:1],,,3h[4:1],,,4h[4:1],,2h[8:1],,6h[4:1],,,6h[4:1],,,3/8h[4:1],,6,,

{8}5,3,8,4,,5,1^4[4:1],,1,1,5,,,,1,4,8,5,7b,,3b,,45,,1-5[8:1],8-4[8:1],1,85,4,,2,7,2,,14,,85,,5,8,4,1,3,,2b,,
{8}36,27,27,,36,,18,18,,45,,45,,,8,1,7,2,{4}6,3,2b,{8},56,56,,58,,34,34,,27,,48,,15,26,37,48,15,26,,2b/6b,,
5^2[4:9]/4,5,,5,54,,54,,54,,5,54,,54,4,5,54,,54,,3-7[4:9]/6,3,,3,36,,36,,36,,3,36,,36,6,3,36,,36,,
7/2h[4:1],7,,7,72,,72,,7/2b,,7,72,,72,2,7,72,,72,,1/8h[4:1],1,,1,18,,18,,1/8b,,1,18,,18,8,1,18,,18,,
5/8h[8:1],5,,5/1h[8:1],5,,5/2h[4:1],,4,,4,4/1h[8:1],,4,8h[8:1],4,4,7h[4:1],4,,4,,
5/1h[8:1],,5,5/2h[8:1],,5,5/3h[4:1],,5,,4,8h[8:1],4,4,7h[8:1],4,,4/6h[8:1],4,,
8,6,4,2,8,4,8,5,84,8,4,1,8,4,5,2,14,6,14,5,1,5,1,3,15,7,5,3,1,5,8,5,15,3,5,6,84,4,4,4,84,,
{2}1h[2:3],,,
{8}3-6[8:1],,,7-2[8:1],,,2-5[8:1],,6-1[8:1],,3-6[8:1],,,1-6[8:1],,,7-4[8:1],,8-3[8:1],,
3-6[8:1],,,7-2[8:1],,,1-4[8:1],,8-5[8:1],,7-4[8:1],,,1-6[8:1],,,5-2[8:1],,3-8[8:1],,
3-7[2:1],,,7-2[8:1],,,4-7[8:1],,5-2[8:1],,6-2[2:1],,,2-7[8:1],,,1-6[8:1],,8-3[8:1],,
2^7[2:1],,,7-2[8:1],,,3-6[8:1],,6^3[8:1],,7b,,45,45,,4h[4:1]/5h[4:1],,,18,18,,1h[4:1]/8h[4:1],,,

5h[4:1]/7h[4:1],,,3h[4:1]/8h[4:1],,,4h[8:1]/1h[8:1],,3h[8:1]/2h[8:1],,6h[4:1]/2h[4:1],,,6h[4:1]/1h[4:1],,7,6,5h[4:1],4h[8:1],,
4h[4:1]/7h[4:1],,,6h[4:1]/8h[4:1],,,5h[4:1]/1h[8:1],,7h[8:1]/2h[8:1],,8h[8:3]/5h[4:1],,,1/6h[4:1],2,3,4/7h[8:1],5,6/8h[8:1],7,
5h[4:1]/4h[4:1],,,3h[4:1]/6h[4:1],,,4h[4:1]/1h[8:1],,2h[8:1]/7h[8:1],,6h[4:1]/5h[4:1],,,6h[4:1]/4h[4:1],,,8h[8:1]/3h[8:1],,6/1h[8:1],,


5,1,5,1,5,1,7,3,4,8,4,8,2,6,{16}4,5,4,5,{8}1,3,7,5,5b/8b,,5b/8b,,
5/3-7[8:1],5,,5/7-2[8:1],5,,5/2-6[4:1],,4,,4,4/6-2[8:1],,4,2-7[8:1],4,4,7-3[4:1],4,,4,,
5/3-7[8:1],,5,5/6-2[8:1],,5,5/3-6[4:1],,5,,4,2-6[8:1],4,4,7-3[8:1],4,,4/6-3[8:1],4,,
8,6,4,2,8,4,8,5,84,8,4,1,8,4,5,2,14,6,14,5,1,5,1,3,15,7,5,3,1,5,8,5,45,45,45,45,45,45,45,45,4b/5b,

{1},,,,,
名前:
コメント:

タグ:

+ タグ編集
  • タグ:

このサイトはreCAPTCHAによって保護されており、Googleの プライバシーポリシー利用規約 が適用されます。

最終更新:2014年04月26日 03:13