モザイクロール

アーティスト DECO*27

BPM EASY BASIC ADVANCED EXPERT MASTER
145 2 3 6 10+ 12

EASY


BASIC

(145.0){1},,,,
{1}1,
{1}1,
{1}2,
{1}2,
{1}2-7[4:3],,
{1}6-3[4:3],,
{2}2,2,
{2}2,2,
{2}1,1,
{2}1,1,
{1}8h[2:1],
{2}8,8,
{1}7h[2:1],
{2}7,7,
{1}6h[2:1],
{2}6,6,
{1}5h[2:1],
{2}5,5,
{1}4-1[4:3],,
{1}8-5[4:3],,
{2}4,4,
{2}4,4,
{2}3,3,
{2}3,3,
{1}2h[2:1],
{2}2,2,
{1}1h[2:1],
{2}1,1,
{1}8h[2:1],
{2}8,8,
{1}7h[2:1],
{2}7,7,
{1}6-2[4:3],,
{2}1,1,
{2}1/8,1/8,
{2}2,2,
{4}3,3,3b,,
{2}4,4,
{2}4/5,4/5,
{2}6,6,
{4}7,7,7b,,
{1}8-5[4:3],,
{1}4-1[4:3],,
{1}2-7[4:3],,
{1}6-3[4:3],,
{1}4h[1:1],,
{1}5h[1:1],,
{1}6h[1:1],,
{1}7h[1:1],,
{4}8,8,8,,
{4}1/8,1/8,1/8,,
{2}7,7,
{4}6,6,6b,,
{4}5,5,5,,
{4}4/5,4/5,4/5,,
{2}3,3,
{4}2,2,2b,,
{1}2-6[4:3],,
{1}7-3[4:3],,
{4}2,2,2,,
{4}3,3,3,,
{4}4,4,4,,
{4}5,5,5,4/5,
E

ADVANCED

(145.0){2}6,7,
{4}6,7,8,,
{2}1,2,
{2}3,4/5,
{2}3,3,
{4}4,3,2,,
{2}1,8,
{4}7,7,7/8,,
{4}5,5,6,,
{4}7,6,5,,
{2}4,3,
{4}2h[2:1],1,1,,
{4}1,1,8,,
{4}8,7,8,,
{4}6,7,8,,
{4}1,1,1/2,,
{1}7-2[4:1],
{1}1-4[4:1],
{1}3-6[4:1],
{1}8-5[4:1],
{1}4^1[4:1],
{1}8^5[4:1],
{1}4-1[4:1],
{1}2-7[4:1],
{4}8h[2:3],1,2,1,
{4}2,2,1,,
{4}4h[2:3],5,6,5,
{4}6,6,5,,
{4}7h[2:3],6,5,4,
{4}4,5,6,,
{4}3,8,8,7,
{4}7,6,5,4,
{4}4,3,2,,
{4}1,8,7,,
{4}6,5,4,,
{4}3,3,3,,
{4}4,5,6,,
{4}7,8,7,,
{4}8,1,1/8,,
{4}2,2,2,1,
{4}1,1/2,8,7/8,
{4}7,,8,1b/8b,
{4}8,7,8,7,
{4}6,7,6,7,
{2}8,1,
{4}2,3,4,4,
{4}4b/5b,4,3,3,
{4}2,1,2,,
{4}2h[4:1],1,7h[4:1],8,
{4}1,1-4[4:1]/8-5[4:1],,,
{4}6,6,5,,
{4}4,4,3,,
{4}1,1,2,2,
{4}8,8,7,7,
{2}5h[2:1],6h[2:1],
{1}7h[2:1],
{2}8h[2:1],1h[2:1],
{1}2h[2:1],
{2}3,3,
{2}4,4,
{2}5,5,
{4}6,6,6/7,,
{2}6,6,
{2}5,5,
{2}4,3,
{4}2,,4,4,
{4}4b,4,5,5,
{4}5,6,6,,
{4}6,6,6,,
{8}7,,7,,7,7,7,,
{4}8b,8,8,8,
{8}1,8,1,8,1,,,,
{4}2,3,4,5,
{4}6/7,7,7/8,7b/8b,
{4}8,1,8,1,
{4}1,2,1,2,
{4}2,3,4,5,
{8}5,,4,,4,4,4,,
{4}5,6,7,8,
{4}8,8,1,1,
{4}2,2,3,3,
{8}4,,4/5,,5,5,5,5,
E

EXPERT

(145.0){4}4,4,5,5,
{4}4,4,5,5,
{4}3,4,6,5,
{4}3,4,5/6,3/4,
{8}1,1,8,8,1,1,8,8,
{8}2,2,7,7,1/8,,2/7,,
{8}2,2,1,1,7,7,8,8,
{4}3/4,5/6,1h[4:1]/8h[4:1],,
{8}2h[4:1],,3,4h[4:1],,5,,,
{8}7h[4:1],,6,5h[4:1],,4,,,
{8}8h[4:1],,1,2h[4:1],,3,,,
{8}1h[4:1],,8,7h[4:1],,6,,,
{8}3h[4:1],,4,2h[4:1],,1,1,,
{8}6h[4:1],,5,7h[4:1],,8,8,,
{8}1h[4:1],,6,3h[4:1],,4,4,,
{8}8h[4:1],,3,6h[4:1],,5,5b,,
{16}8,,,7,,,6h[8:3],,,,,,5,,,,
{16}1,,,2,,,3h[8:3],,,,,,4,,,,
{16}6,,,5,,,4h[8:3],,,,,,3,,,,
{16}3,,,4,,,5h[8:3],,,,6,,6,,,,
{16}4,,,3,,,2h[8:3],,,,,,1,,,,
{16}5,,,6,,,7h[8:3],,,,,,8,,,,
{16}2,,,1,,,8h[8:3],,,,,,7,,,,
{16}7,,,8,,,1h[8:3],,,,2,,2,,,,
{1}3h[1:1]/4-8[4:3],,
{8}2,,7,7h[4:1],,1,,6,
{8}7,,2,2h[4:1],,3,,7,
{8}3,,5,5h[4:1],,6,,4,
{8}5,,2,2h[4:1],,4,,7,
{8}5,,8,1h[4:1],,3,,5,
{8}4,,7,7h[4:1],,8b,,,
{16}3,,,1,,,7-3[8:1],,,,1,,1,,,,
{16}1,,,3,,,5-1[8:1],,,,3,,3,,,,
{16}7,,,1,,,3-7[8:1],,,,5,,5,,,,
{16}5,,,7,,,1-5[8:1]/7-4[8:1],,,,,,,,,,
{16}1,,,5,,,3h[8:3],,,,7,,7,,,,
{16}8,,,4,,,7h[4:1],,,,2,,2,,8,,
{16}8,,,1,,,5,,,,4,,5,,,,
{16}6,,,1,,,7,,,,6,,4/5,,,,
{2}6/7,1/8,
{2}2/3,4-8[8:1],
{8}1,8,1,8,2,1,2,7,
{8}8,7,1,8,1b,,2-6[8:1],2,
{8},,7-3[8:1],7,,,4/8,,
{4}3/7,2/6,1-4[8:1]/5-8[8:1],,
{8}4,5,4,5,3,4,3,6,
{8}5,6,4,5,4b,,5-8[16:3],,
{4},1-6[16:3],,7,
{4}5,6,7-4[8:1]/8-3[8:1],,
{8}5/7,,2/6,,3,4,3,,
{8}2/4,,3/7,,6,5,6,,
{8}5/7,,2/6,,3,4,3,,
{8}2/4,,3/7,,6,5,6,7,
{8}1/6,,5/7,,3,4,3,2,
{8}3/8,,2/4,,6,5,6,7,
{8}1/6,,2/8,,3,4,5,4,
{8}3/8,,1/7,,6,5,4,5,
{2}3,2,
{4}1,8h[4:1],7,,
{2}2h[2:1],1h[2:1],
{4}5h[4:1],6h[4:1],3h[4:1],4h[4:1],
{2}3,4,
{4}5,6h[4:1],7,,
{4}1h[4:1],2h[4:1],3h[4:1],4,
{4}4/8,3/7,2/6,1b/5b,
{8}2,1,2,1,3,2,3,8,
{8}1,8,2,1,2b,,7-3[8:1],7,
{8},,5-1[8:1],5,,,7/8,,
{4}5/6,3/4,1-6[8:1]/2-5[8:1],,
{8}4,5,3,6,2,7,1-5[8:1],,
{4}8-4[8:1],1^4[8:1],,5-8[16:3],
{4},1-6[16:3],,7,
{4}5,6,7-4[8:1]/8-3[8:1],,
{8}1h[4:1],,2,3-6[8:1],,8-5[8:1],,,
{8}8h[4:1],,7,6-3[8:1],,1-4[8:1],,,
{8}5h[4:1],,6,7-2[8:1],,4-1[8:1],,,
{8}4h[4:1],,3,2-7[8:1],,5-8[8:1],,,
{8}1h[4:1],,7,8,,5,4,3,
{8}8h[4:1],,2,1,,4,5,6,
{8}2h[4:1],,4,3,,6,5,4,
{8}1/3,,6/8,6/8,,1/8,1/8,1b/8b,
E

MASTER

(145){16}
1,,7,8,,7,8,,6,,,,8,,8,,
8,,2,1,,2,1,,3,,,,2,,2,,
2,,4,3,,4,3,,5,,,,7,,7,,
7,,5,6,,5,6,,4,,,,1,8,1,8,
1,,4,3,,4,3,,5,,,,3,4,3,,
8,,5,6,,5,6,,4,,,,6,5,6,,
3,,8,1,,8,1,,6,,,,2,1,2,,
6,,1,8,,1,8,,4,5,4,,8b,,,,

{8}
1,,1,2,3,8,7,6,
2,3,4,5,7,6,5,4,
1,,8,7,6,2,3,4,
7,6,5,4,3,4,5,6,
1,,7,8,1,3,2,1,
8-3[16:3],7,6,5,4-7[16:3],3,2,1,
1,,2,1,8,6,7,8,
1-6[16:3],2,3,4,5-2[16:3],6,7,8,

{16}
1h[16:3],,,7h[16:3],,,5-2[8:1],,,,8,,8,,,,
8h[16:3],,,2h[16:3],,,4-7[8:1],,,,1,,1,,,,
3h[16:3],,,7h[16:3],,,1-5[8:1],,,,6,,6,,,,
36,,,1-4[8:1]/8-5[8:1],,,,,,,3,,4,,6,,
5^2[8:1],,,5^8[8:1],,,5,,,,2,,2,,,,
1,,,5,,,1,,,,15,,26,,37,,
8^3[8:1]/4,,,8^5[8:1],,,8,,,,7,,7,,4,,
4,,,8,,,4,,,,6,,2,,,,

{8}
8,,8,7,6,1,2,3,
7,6,5,4,2,3,4,5,
8,,2,3,4,8,7,6,
3,4,5,6,7,6,5,4,
8,,2,1,8,6,7,8,
1^6[16:3],2,3,4,5^2[16:3],6,7,8,
8,,7,8,1,3,2,1,
8^3[16:3],7,6,5,4^7[16:3],3,2,1,

{16}
8h[16:3],,,2h[16:3],,,4-7[8:1],,,,1,,1,,,,
1h[16:3],,,7h[16:3],,,5-2[8:1],,,,8,,8,,,,
6h[16:3],,,2h[16:3],,,8-4[8:1],,,,3,,3,,,,
63,,,8-5[8:1]/1-4[8:1],,,,,,,6,,5,,3,,
4^7[8:1],,,4^1[8:1],,,4,,,,7,,7,,,,
8,,,4,,,8,,,,84,,73,,62,,
1^4[8:1]/5,,,1^6[8:1],,,1,,,,2,,2,,5,,
5,,,1,,,5,,,,3,,7,,,,

{4}
34,38,56,16,
12,78,3-8[8:1]/4-7[8:1],,

{8}
,6,5,4,3,,1,28,
1,28,37,46,5b,,7^4[8:1],,
3^6[8:1],,7^4[8:1],,3^6[4:1],,6^1[4:1],,
1^4[4:1],,4^7[4:1],,7^2[4:1],,3b,,
,3,4,5,6,,8,71,
8,71,62,53,4b,,26,37,
48,,37,26,15,,14,,
25,,36,,7^4[8:1]/4^1[8:1],,,,

1,2,8,7,2,3,7,6,
4,3,5,6,3,2,6,7,
2-6[8:1],,6-2[8:1],,2-6[8:1],,6^3[4:1],,
3^8[4:1],,8^5[4:1],,5^2[8:1],,7b,,
8,8,6,6,4,4,2,2,
1,1,3,3,5,5,7,7,
1-5[8:1],1,8-4[8:1],8,7-3[8:1],7,6-2[8:1],6,
5-1[8:1],5,4-8[8:1],4,3-7[8:1],3,8,8,

{4}
2,2,4,4,
6,6,8,8,
8,4,6,1-5[8:1],
8-4[8:1],2-6[8:1],7-3[8:1],,
2,13,6,57,
15,26,37,48,
68,7,24,3,
47,38,1-6[8:1]/2-5[8:1],,

{8}
,3,4,5,6^3[8:1],,6,1,
15,26,37,48,48,,2-5[8:1],,
1-6[8:1],,4-1[8:1],,8-4[8:1],,3-7[8:1],,
5^2[8:1],,8^3[8:1],,5^8[8:1],,,,
,6,5,4,3^6[8:1],,3,8,
84,73,62,51,51,,38,27,
16,,58,16,27,,8-4[8:1],,
4-8[8:1],,8^3[8:1],,7^4[8:1],,,,

2,,4,5,6,8,7,6,
5^8[16:3],4,3,2,1^4[16:3],8,7,6,
2,,3,4,3,6,5,6,
2,1,8,7,5,6,7,8,
7,,5,4,3,1,2,3,
4^1[16:3],5,6,7,8^5[16:3],1,2,3,
7,,6,5,7,3,4,2,
2,8,2,8,1-5[8:1],7-3[8:1],1b,7b,

{1}
,,
E

名前:
コメント:

タグ:

+ タグ編集
  • タグ:

このサイトはreCAPTCHAによって保護されており、Googleの プライバシーポリシー利用規約 が適用されます。

最終更新:2022年07月02日 22:27