パラジクロロベンゼン(創作譜面:白狼)

曲名 パラジクロロベンゼン
制作者名 白狼
音源 http://www.nicovideo.jp/watch/sm22751357
譜面動画
制作者コメント プレイはお勧めできないですすみません…
BPM EASY BASIC ADVANCED EXPERT MASTER
66-264.8 - - - - 12

EASY


BASIC


ADVANCED


EXPERT


MASTER

(120){2}2-5[4:1],7-4[4:1],1-6[4:1],8-3[4:3],,
(66){8}2-7[8:1],7-2[8:1],2-5[8:1],5-2[8:1],2-7[8:1],7-2[8:1],{16}2,2,2,,
{8}7-2[8:1],2-7[8:1],7-4[8:1],4-7[8:1],7-2[8:1],2-7[8:1],{16}7,7,7,,
{8}1-4[8:1],3-6[8:1],5-8[8:1],7-2[8:1],1-4[8:1],3-6[8:1],{16}5,5,5,,
{8}1-6[8:1],7-4[8:1],5-2[8:1],3-8[8:1],1-6[8:1],{32}7-4[8:1],,6,5,6h[16:1],,,,{8}2h[8:1],
1-5[8:1],2-6[8:1],3-7[8:1],4-8[8:1],5-1[8:1],6-2[8:1],{16}7,7,7,,
{8}8-4[8:1],7-3[8:1],6-2[8:1],5-1[8:1],4-8[8:1],3-7[8:1],{16}2,2,2,,
{8}1^4[8:1],4^7[8:1],7^2[8:1],2^5[8:1],5^8[8:1],8^3[8:1],{16}3,3,3,,
{8}8^5[8:1],5^2[8:1],2^7[8:1],7^4[8:1],4^1[8:1],{32}1^6[8:1],,1,8,1,,,,{8}8,
(264.8)2,,8,7,8,,2,1,2h[4:1],,3h[4:1],,2,,3,4,3,,6,5,6,,3,4,3h[4:1],,2h[4:1],,3,,2,6,2,,7,3,7,,2,6,2h[4:1],,6h[4:1],,2,,4,8,4,,1,5,1,,4,8,4h[4:1],,8h[4:1],,4,,
1,8,7,,8,1,2,,8,1,68,,13,,36,,6,5,4,,5,6,7,,5,6,57,,64,,47,,1,1,28,,2,2,13,,2,1,28,,31,,28,,5,5,46,,6,6,57,,6,5,46,,57,,46,,
2-5[4:1],1,2,,7-4[4:1],8,7,,2-5[4:1],7-4[8:3],2b,,7b,,4b,,3,6,3,,4,5,3,6,2,7,3,6,2,7,1,,7-4[4:1],8,7,,2-5[4:1],1,2,,7-4[4:1],2-5[4:1],7b,,2b,,5b,,1,5,1,,2,6,3,7,4,8,5,8,4,1,3,,
2-5[4:1],1-6[4:1],2,,2-5[4:1],1-6[4:1],2,,7-4[4:1],8-3[4:1],7,,7-4[4:1],8-3[4:1],7,,6-1[4:1],5-2[4:1],6,,6-1[4:1],5-2[4:1],6,,4-7[4:1],3-6[4:1],4,,4-7[4:1],3-6[4:1],4,,4,,
1,2,3,4,8,7,6,5,1,2,3,4,8,7,6,5,48,37,26,15,15,26,37,48,1b,,1b,,1b,,
(264)18,2,18,,18,7,18,,18,3,18,,18,6,18,,18,4,18,,18,5,18,,18,18,13,,86,,36,,45,6,45,,45,3,45,,45,7,45,,45,2,45,,45,8,45,,45,1,45,,45,45,24,,57,,27,, 7,8,1,,4,5,6,,3,2,1,,6,5,4,,1,2,3,,8,7,6,,6,7,8-5[4:1],,8-4[4:1],,8-3[4:1],,
3,4,5,,8,1,2,,7,6,5,,2,1,8,,5,6,7,,4,3,2,,2,3,2h[8:7],,,,7h[8:3],,,,
23,,23,1,23,,23,5,23,,23,8,23,,23,6,23,,23,7,23,,23,23,35,,28,,58,,67,8,67,,67,5,67,,67,1,67,,67,4,67,,67,2,67,,67,3,67,,67,67,46,,71,,14,,
1,2,3,,6,7,8,,5,4,3,,8,7,6,,3,4,5,,2,1,8,,8,1,2-7[4:1],,2-6[4:1],,2-5[4:1],,
5,6,7,,2,3,4,,1,8,7,,4,3,2,,7,8,1,,6,5,4,,4,5,4h[8:7],,,,1h[8:3],,,,

8,8,1,1,7,7,2,2,18,,27,27,,,,,4,4,5,5,3,3,6,6,45,,36,36,,,,,4,3,2^5[4:1],1,8,1,2/5^8[4:1],3,4,,26,48,,,,,4,5,6^3[4:1],7,8,7,6/3^8[4:1],5,4,,26,48,,,,,
8-4[16:1],8,1-5[16:1],1,2-6[4:1],2,7-3[16:1],7,8,,27,27,,,,,5-1[16:1],5,4-8[16:1],4,6-2[16:1],6,3-7[16:1],3,5,,36,36,,,,,1-5[16:1],1,4-8[16:1],4,7-3[16:1],7,6-2[16:1],6,1,,67,67,,,,,37,37,15,15,26,26,48,48,,,1^4[8:1]/8^5[8:1],,1-5[8:1]/8-4[8:1],,,,
(132.5)2^7[4:1],4,6^1[4:1],4,2^7[4:1],4,6^1[4:1],4,2^7[4:1],8^5[4:1],6^3[4:1],4^1[4:1],1-5[8:1],,,,6^3[4:1],8,2^5[4:1],8,6^3[4:1],8,2^5[4:1],8,6^3[4:1],4^1[4:1],2^7[4:1],8^5[4:1],{16}5,6,7,8,1,,
{8}3,2h[4:1],1,8h[4:1],7,6h[4:1],5,4h[4:1],5,6h[4:1],4,2h[4:1],8,6h[4:1],4,2h[8:1],8,
45,36,18,27,45,36,18,27,
1^6[8:1],1^4[8:1],1-6[8:1],1-4[8:1],1-5[8:1],1b,1b,,
8^3[8:1],8^5[8:1],8-3[8:1],8-5[8:1],8-4[8:1],8b,8b,
(264.6)2-5[4:1],1,2,,2-5[4:1],1,2,,7-4[4:1],8,7,,7-4[4:1],8,7,,2-5[4:1],1,2,,7-4[4:1],8,7,,18,27,1b/8b,,1-4[4:1]/8-5[4:1],,1b/8b,,6-1[4:1],5,6,,6-1[4:1],5,6,,3-8[4:1],4,3,,3-8[4:1],4,3,,6-1[4:1],5,6,,3-8[4:1],4,3,,45,36,4b/5b,,4-1[4:1]/5-8[4:1],,4b/5b,,
1,8,7,,8,1,2,,8,7,6,,1,2,3,,7,6,5,,2,3,4,,36,45,4b/5b,,36,,4b/5b,,5,4,3,,4,5,6,,4,3,2,,5,6,7,,3,2,1,,6,7,8,,23,67,23,,,,2b/7b,,,,
{4}7-2[2:1],7,2-5[2:1],2,5-8[2:1],5,8-3[2:1],8,3^6[4:1],6^1[4:1],1^4[4:1],4^7[4:1],7-4[4:1],7-2[4:1],7b,7b,
7-4[2:1],7,4-1[2:1],4,1-6[2:1],1,6-3[2:1],6,3^8[4:1],8^5[4:1],5^2[4:1],2^7[4:1],7-2[4:1],7-4[4:1],7b,
{8}1-5[8:1],2,3-7[8:1],,8-4[8:1],7,6-2[8:1],,4-8[8:1],5,6-2[8:1],,5-1[8:1],4,3-7[8:1],,7-3[8:1],8,1-5[8:1],,2-6[8:1],1,8-4[8:1],,1,8,4b/5b,,7b/8b,,1b/2b,,
5,6,5,,56,56,56,,1,2,1,,12,12,12,,78,78,78,,34,34,34,,12,83,4h[4:1]/7h[4:1],,,,4h[4:1]/7h[4:1],,,,
(132){16}3^8[4:1],3,,3,,3,,3,5^2[4:1],5,,5,5,,5,,7^4[4:1],7,,7,,7,,7,1^6[4:1],1,,1,1,,1,,
8-4[4:1],7,,7,,6,,6,6-2[4:1],5,,5,4,,4,,3-7[4:1],3,,2,,2,,2,1-5[4:1],1,,1,8,,8,,
1,3,,57,,47,,2,3,13,,5,56,,46,,5,7,,12,,38,,6,47,57,,1,13,,28,,
(264){8}13,3,,57,,47,,2,3,13,,5,56,,46,,5,7,,12,,38,,16,
1b/8b,1b/8b,,4b/5b,4b/5b,,,,2b/6b,2b/6b,,4b/8b,4b/8b,,,,6b/7b,6b/7b,,2b/3b,2b/3b,,,,1b/8b,4b/5b,,1-4[4:1]/8-5[4:1],1b/8b,,,,,,,,,,,E


名前:
コメント:

タグ:

+ タグ編集
  • タグ:

このサイトはreCAPTCHAによって保護されており、Googleの プライバシーポリシー利用規約 が適用されます。

最終更新:2014年01月26日 17:44