物凄い勢いでけーねが物凄いうた(創作譜面:shimelar)

曲名 物凄い勢いでけーねが物凄いうた
制作者名 shimelar
音源
譜面動画
制作者コメント
3倍アイスクリぃぃぃぃぃぃぃぃむ♥♥♥♥♥♥♥♥♥
Twitter-@shimelar
BPM EASY BASIC ADVANCED EXPERT MASTER
--- - - - 9 11

&title=物凄い勢いでけーねが物凄いうた
&freemsg=3倍アイスクリぃぃぃぃぃぃぃぃむ♥♥♥♥♥♥♥♥♥
&wholebpm=180
&elements=32,12,12,24
&first=2.11
&lv_1=
&lv_2=
&lv_3=
&lv_4=10
&lv_5=11

EASY


BASIC


ADVANCED


EXPERT

(180){8}6-2[2:1]/5-2[2:1],,,,,,,,
1h[1:1],,2,,2,,2,,
3h[1:1],,4,,4,,4,,
5h[1:1],,6,,6,,6,,
7h[1:1],,8,,8,,8,,
1,1,2,,1,,1,,
8,8,7,,8,,8,,
3,3,4,,5,,6,,
45,,{16},3h[4:1]/6h[4:1],{8},,,,,
{16}1b,,8b,,1,,8,1h[16:5],8h[4:1],,,,,,,,
{8}2,7,6,,7,3,2,,
4,5,4,,5h[4:1],,6,,
3,6,7,,6,2,3,,
5,4,5,,4h[4:1],,3,,
8,7,6,,1,2,3,,
45,45,45,,4h[4:1]/5h[4:1],,,,
28,17,86,,17,28,31,,
{16}1,8,7,6,5,4,3,,,,1b/2,,7/8b,,,,
{8}12,,21,,87,,78,,
43,,34,,65,,65,,
6h[4:3]/5,,4,,3,,2^7[2:1],,
6,,5h[4:1],,,,4,3h[8:5],
8,,8,,1,,1,,
65,,65,,34,,43,,
3h[4:3]/4,,5,,6,,7^2[2:1],,
3,,4h[4:1],,,,5h[4:1],6,
1,,21,,8,,87,,
4,,34,,5,,56,,
5^8[2:1],,4,,3,,2,,
18,,2h[4:1]/7h[4:1],,,,3h[4:1],4,
6-2[2:1],,4,,3,,1,,
2,,12,,7,,87,,
6-2[4:1],,56,,3,,43,,
8,7,1,2,7,6,2,3,
54,,56,,54,,34,,
73,,1,,8,,7,,
26,,8,,1,,2,,
3h[2:1],,,1,2,,5,6,
78,,81,,21,,18,,
54,,36,,27,,18,,
8h[8:3],,1,1h[8:5],,8,8^5[4:3],,
8,,1,,1-6[16:1],,1,,
6-1[16:1]/5-2[16:1],,6b/5b,,1-5[16:1]/8-4[16:1],,1b/8b,,
3h[2:1],,6,,5h[4:1],,1,8,
7h[2:1],,2,,1h[4:1],,5,4,
32,,82,,17,,82,,
1h[4:1]/7h[4:3],,,,8b,,2b,,
76,,56,,{12}3,4,3,{8}4,,
3h[4:1],,2h[4:1],,8h[4:1],,1,,
6h[2:1],,7,,{12}5,6,5,6,5,,
{8}5h[4:1]/6h[4:1],,,2h[4:1]/3h[4:1],,,1b/8b,,
5^2[2:1],,6h[4:1]/5,,,,7,,
4^7[2:1],,3h[4:1]/4,,,,2,,
1-4[16:1]/3-8[16:1],,,,6-1[16:1]/8-5[16:1],,,,
2h[4:1]/7h[4:1],,,,18,,27,,
2,1,8,7,{12}6,5,6,5,6,5,
{8}4,3,2,1,{12}8,7,8,7,8,7,
{8}6,,5,,4,,3,,
12,,81,,78,,27,,
7-4[8:5],,6,,5-8[8:1],,,,
13,,2,,13,2,31,,
2-5[8:5],,3,,4-1[8:1],,,,
86,,7,,86,7,86,,
4-7[16:1],,5-2[16:1],,6-3[16:1],,2h[4:1],,
1,,8,,18,1,8,,
5-2[16:1],,4-7[16:1],,3-6[16:1],,7h[4:1],,
8,,1,,18,2/3b,6b/7,,
87,,21,,3,4,5,,
7h[4:3],,8,,1-4[16:1],,,,
21,,87,,6,5,4,,
2h[4:3],,1,,8-5[16:1],,,,
27,8,3,1,64,5,64,5,
5h[4:1],6,7,8-5[4:1],1,2,3,4,
4h[4:1],3,2,1-4[4:1],8,7,6,5,
45,63,72,18,1h[4:1]/8h[4:1],,,,
{1}1-5[1:2]/8-4[1:2],,

MASTER

(180){8}3-7[4:3],,,,,,,,
2,2,2h[4:1],6,6,6h[4:1],3,4,
3,3,3h[4:1],,7,5,6,7,
8,1,2,4h[4:1],3,5,6,6h[4:1],
,5,4,5,,8,1,8,
7,7,6,5h[4:1],3h[8:1],,2h[8:1],1h[8:1],
8h[8:3],1,2,3,4,4-8[4:5],4,5,
6,7,8,8,1,2,2-6[8:1],2,
,,,6h[4:1]/8h[4:1],,,8,,
1^4[8:3],2^5[8:3]/3h[8:5],,,,,,,
{16}4,5,4,5,4h[8:1],,5h[8:1],,4,5,4,5,4h[8:1],,5h[8:1],,
4,5,4,5,4h[8:1],,5h[8:1],,3h[4:1],,,,6,,36,,
3,6,3,6,3h[8:1],,6h[8:1],,2,7,2,7,2h[8:1],,7h[8:1],,
1,8,1,8,1h[8:1],,8h[8:1],,1,8,1,8,1,,8,,
2,1,2,1,2h[8:1],,1,,2,8,2,8,2h[8:1],,8,,
2,7,2,7,2h[8:1],,7,,8,1,8,1,8h[4:1],,2,,
1,,2,,3,,4,,5,,6,,7,,8,,
1,2,3,4,5,6,7,81,,2b/3b,,6b/7b,,,,,
{8}1,2,1,3,2,4,2,5,
3,6,3,7,4,8,4,1,
1h[2:1],5,6,7,6h[2:1],5,4,3,
2-5[8:1],,1-4[8:1],,8-3[8:1],,1,2,
3,4,3,4,4,5,4,5,
5,6,5,6,6,5,4,3,
3h[8:3],,2,1h[4:1],,8h[4:1],,1,
1-5[8:1],,7-3[8:1],,6-2[8:1],,4-8[8:1],,
1,2,1,2,3,2,3,4,
5,6,5,6,7,8,7,6,
6-2[8:1],,6-3[8:1],,6-1[8:1],,6-2[2:1],,
7,,8h[4:1],,,,1,2,
8,7,8,6,7,5,7,4,
6,3,6,2,5,1,5,8,
1h[4:1],,8,1/8h[4:1],,7h[4:1],,6,
1^4[8:1],1,5-1[8:1],5,8^5[8:1],8,4-8[8:1],4,
5,5,5,4,8,1,8,1,
7,6,7,6,2,3,2,3,
4h[4:1],5,6,7,3h[4:1],8,1,2,
3,3h[8:3],,4,4h[8:3],,5,5,
5h[4:1],4,3,2,6h[4:1],1,8,7,
6,6h[8:3],,5,5h[8:3],,4,4,
4h[4:1]/3,2,1,5h[4:1],6,7,8/4^1[4:1],,
1^6[4:1],,6^3[4:1],,3-7[20:1],,7-4[16:1],,
7b/1-5[16:1],,1b/8-4[16:1],,8b/2-5[16:1],,2b/7-4[4:1],,
4^1[8:1],,6,,8,7,8,1,
4,3,4,5,1,2,1,8,
27,,7b/1,8,2b/8,1,1b/7b,17,
2h[4:1]/8h[4:1],,,,37,,26,,
6,2,6,3,{6}54,43,76,
{8}6,2,7h[4:1]/8,1,2h[4:1],1,8h[4:1],1,
2h[2:1],7,6,5,{6}4,32,18,
{16}7,,5,4,3,,2,,4,5,6,,1-5[2:1]/7,,1,8,
{8}1,2,1,2,4,3,4-8[2:1],3,
4,5,6,5,6,7,8,1,
1-6[16:1]/8,,8-3[16:1]/1,,2-6[16:1]/8,,7-3[4:1]/2,,
7h[4:3],,,,2,,6,,
3,6,3,6,{6}36,56,43,
{8}45,7,21,7,18,7,21,7,
3h[4:1],7,6h[4:1],2,3h[4:1],7,6h[4:1],2,
1h[4:1],7,8h[4:1],2,1h[4:1],7,8h[4:1],2,
1,,,,8,,,,
32,,76,,1-4[12:1]/8-5[12:1],27,18,,
2,,,,7,,,,
76,,32,,1-4[12:1]/8-5[12:1],27,18,,
7,,2,,8,1,8,,
32,54,76,,1-4[12:1]/8-5[12:1],27,18,,
2,,7,,1,8,1,,
6h[4:1],,3h[4:1],,2,1/8b,7/8b,,
{16}2,,7,,2,,,,1,8,1,8,1,,,,
{8}3,6,3-7[4:1],6-2[4:1],,,,,
{16}7,,2,,7,,,,8,1,8,1,8,,,,
{8}6,3,6-2[4:1],3-7[4:1],,,,,
{16}3b,,,,6b,,,,3b,6,3,6,3b,,,,
27,,,,18,,,,18,,72,63,54,,,,
1b/5b,,,,4b/8b,,,,3-7[16:3]/7b,26,15,48,3b/7-2[8:1],,,,
{8}5,4,5,4,2h[4:1]/5h[4:1],,,,
{1}1b/2b,

名前:
コメント:

タグ:

+ タグ編集
  • タグ:

このサイトはreCAPTCHAによって保護されており、Googleの プライバシーポリシー利用規約 が適用されます。

最終更新:2014年01月29日 18:28