Lighting Shower(創作譜面:Bluish_eLvis)

曲名 Lighting Shower
制作者名 Bluish_eLvis
音源 beatmaniaIIDX 21 SPADA
https://www.youtube.com/watch?v=OweLFZ8U2Zk
譜面動画
制作者コメント TAG生誕祭と聞いた当日に急遽書いたものです。maiPad for Windowsのテストを兼ねていたりします。
※背景動画は合成です
BPM EASY BASIC ADVANCED EXPERT MASTER
162 - - - - 11

EASY


BASIC


ADVANCED


EXPERT


MASTER

(162){1}2h[1:1],{8}1h[4:1],,2,3h[8:1],,3,2h[4:1],,
{2}3h[2:1],1h[2:1],7h[2:1],5h[2:1],
{16}1,5,1,5,3,7,3,7,1,5,1,5,3,7,3,7,
2,6,2,6,4,8,4,8,2,6,2,6,4,8,4,8,
{24}
1,2,3,4,5,6,7,8,1,2,3,4,5,6,7,8,1,2,3,4,5,6,7,8,
1,2,3,4,5,6,7,8,1,2,3,4,5,6,7,8,1,2,3,4,5,6,7,8,
{4}1,1,{16}1,,1,4,1b,,1,,
8h[8:1],,5,4,3-7[16:1],2,1,8,7-3[16:1],,7,3,,3,7,,
2h[8:1],,3,4,5-1[16:1],6,7,8,1-4[16:1],,1,4,,4,1,,
8h[8:1],,,8h[8:1],,,1,2,3h[8:1],,6,7,8,1,2,3,
4,8,3,7,2,6,1,5,8,4,1,5,2,6,3,7,
8h[8:1],,5,4,3-7[16:1],2,1,8,7-3[16:1],,7,3,,3,7,,
2h[8:1],,3,4,5-1[16:1],6,7,8,1-4[16:1],,1,4,,4,1,,
8h[8:1],,,8h[8:1],,,1,2,3h[8:1],,6,7,8,1,2,3,
4,8,3,7,2,6,1,5,8,4,1,5,2,6,3,7,
7b,6,3,2,7b,5,4,1,
8b,6,4,1b,3,5,8b,6,4,2,8,5,1,5,1,5,
2,6,3,7,4,8,1,5,
2b,3,6,7,2b,4,5,8,
1b,3,5,8b,6,4,1b,3,5,7,1,4,8,4,8,4,
7,3,6,2,5,1,8,4,
7b,6,3,2,7b,5,4,1,
8b,6,4,1b,3,5,8b,6,4,2,8,5,1,5,1,5,
2,6,3,7,4,8,1,5,
4,5,4,5,3,6,3,6,2,7,2,7,1,8,1,8,
1,3,5,8,6,4,7,2,{2}7h[4:1],
{4}6-2[8:1],3-8[8:1],7,5,
6-2[8:1]/2,64,5-1[8:1]/1,4-8[8:1]/5,
2-6[8:1]/6,28,1-5[8:1]/5,8-4[8:1]/1,
3-7[8:1]/7,53,4-8[8:1]/8,5-1[8:1]/4,
2-6[8:1]/6,28,1-5[8:1]/5,8-4[8:1]/1,
6-2[8:1]/2,64,5-1[8:1]/1,4-8[8:1]/5,
2-6[8:1]/6,28,1-5[8:1]/5,8-4[8:1]/1,
7-4[8:1]/1,2-5[8:1]/7,26,7,
{16}2,,5,4,3,2,1,8,7,,3,4,,4,3,,
7,,4,5,6,7,8,1,2,,,5,,,6,,
8h[8:1],,,8h[8:1],,,1,2,3h[8:1],,6,7,8,1,2,3,
4,8,3,7,2,6,1,5,8,4,1,5,2,6,3,7,
2,,5,4,3,2,1,8,7,,3,4,,4,3,,
7,,4,5,6,7,8,1,2,,,5,,,6,,
8h[8:1],,,8h[8:1],,,1,2,3h[8:1],,6,7,8,1,2,3,
4,8,3,7,2,6,1,5,8,4,1,5,2,6,3,7,{16}
7-4[8:1],,7-2[7:1],3,,7,3,,8-5[8:1],,8,,8,,8,5,
2-5[8:1],,2-7[7:1],6,,2,6,,1-4[8:1],,1,,1,,1,4,
6-1[8:1],,6-3[7:1],2,,6,2,,5-8[8:1],,5,,5,,5,8,
3-8[8:1],,3-6[7:1],7,,3,7,,4-1[8:1],,4,,4,,4,1,{16}
6b,3,5,4,6,3,5,4,8b,1,7,2,8,1,7,2,
5b,4,6,3,5,4,6,3,7b,2,8,1,7,2,8,1,
5b,4,5,4,6b,3,6,3,7b,2,7,2,8b,1,8,1,
7b,2,7,2,6b,3,6,3,5b,4,5,4,6b,3,6,3,
{32}1,2,3,4,5,6,7,8,1,2,3,4,5,6,7,8,1,2,3,4,5,6,7,8,{4}1b,
{16}1h[8:1],,4,5,6-2[16:1],7,8,1,2-6[16:1],,2,6,,6,2,,
7h[8:1],,6,5,4-8[16:1],3,2,1,8-5[16:1],,8,5,,5,8,,
1h[8:1],,,1h[8:1],,,8,7,6h[8:1],,3,2,1,8,7,6,
5,1,6,2,7,3,8,4,1,5,8,4,7,3,6,2,
1h[8:1],,4,5,6-2[16:1],7,8,1,2-6[16:1],,2,6,,6,2,,
{4}6-1[8:1]/3-8[8:1],3b/6b,{16}1b/8b,,8,5,,5,8,,
1h[8:1],,,1h[8:1],,,8,7,6h[8:1],,3,2,1,8,7,6,
8,6,4,2,1,3,5,7,4,5,3,6,2,7,1,8,
2b,3,6,7,2b,4,5,8,
1b,3,5,8b,6,4,1b,3,5,7,1,4,8,4,8,4,
7,3,6,2,5,1,8,4,
7b,6,3,2,7b,5,4,1,
8b,6,4,1b,3,5,8b,6,4,2,8,5,1,5,1,5,
2,6,3,7,4,8,1,5,
2b,3,6,7,2b,4,5,8,
1b,3,5,8b,6,4,1b,3,5,7,1,4,8,4,8,4,
7,3,6,2,5,1,8,4,
5,4,5,4,6,3,6,3,7,2,7,2,8,1,8,1,
8,6,4,1,3,5,2,7,{2}2h[4:1],
{1}1^4[4:1]/5^8[4:1],,,E

名前:
コメント:

タグ:

+ タグ編集
  • タグ:

このサイトはreCAPTCHAによって保護されており、Googleの プライバシーポリシー利用規約 が適用されます。

最終更新:2014年03月25日 15:27