【DDR】CDP > PARANOiA Revolution(創作譜面:shimelar)

曲名 【DDR】CDP/PARANOiA Revolution
制作者名 Shimelar
音源
譜面動画
制作者コメント 今回もDDRのsimaiを作ります。"PARANOiA Revolution"のCDPのハンクラ付きです。
Twitter-@shimelar
BPM EASY BASIC ADVANCED EXPERT MASTER
180-360 - - - - 12

EASY


BASIC


ADVANCED


EXPERT


MASTER

{1}5-1[1:7],,,,{4}2,2,,2,,2h[4:11],,,{1},,
{8},,57,,,56,,,
68,,,61,,,81,,
,,13,,,34,,,
24,,,12,,,1,8,
,,67,,,57,,,
68,,,81,,,13,,
2,4,3,4,1,2,1,3,
8,1,6,8,7,8,6,7,
{4}5,,36,7,
6,8,5,7,
18,1,3,2,
8,1,2,{8}3,2,
{4}4,1,14,3,
1,6,7,5,
58,6,8,1,
{8}3,,2,,4,2,4,2,
1,,8,,18,,7,,
2,,4,,5,6,5,6,
8,,1,,18,,2,,
4,,1,,3,,2,4,
3,,,1,8,,,6,
5,,,7,8,,,2,
8,1,8,3,8,1,7,1,
8,1,6,1,8,2,8,1,
8,7,6,7,8,,5,6,
7,6,5,,6,7,8,7,
6,,7,8,1,8,7,,
8,1,2,1,8,,1,3,
4,3,1,8,1,,2,3,
4,3,2,,3,2,1,2,
3,,8,1,2,1,8,,
7,6,5,6,7,,8,7,
5,7,8,1,8,,1,8,
1,2,4,,2,4,2,1,
8,,1,8,1,8,7,,
5,8,5,6,8,,6,7,
6,5,7,8,1,,8,1,
2,4,3,,2,3,2,1,
4,3,2,1,3,2,1,8,
2,1,8,7,1,8,7,6,
{4}5,,45,8,
7,5,8,1,
2,4,1,8,
{8}6,,5,,8,,1,3,
2,,,1,8,,1,,
6,,8,,7,,5,,
6,,8,5,6,,7,8,
7,8,6,1,6,1,8,2,
3,,2,,23,,,,
27,,2,,4,,3,1,
8,,18,,67,,,,
27,,7,,5,,6,8,
1,,18,,71,,8,6,
1,,18,,82,,1,8,
2,1,3,4,3,2,4,3,
2,1,2,8,1,7,1,,
(180){8}
1-4[1:1]/8,,,,6-3[12:1],,,,
7-2[12:1],,,,6-3[16:1],6-2[16:1],6,,
8-4[8:1],,1/8^5[8:1],,8-4[8:1],8-3[8:1],8-5[8:1],,
8,,6,,3^8[8:1],4-8[12:1],3-8[8:1],,
1,,7,,2-6[8:1],2-5[8:1],2-7[8:1],,
2,,8-5[16:1],,7-4[8:1],7-2[8:1],7-3[4:1],,
1,,8,,1-5[12:1]/8-4[12:1],18,1^6[10:1]/8^3[10:1],,
1-4[2:1],,,4^7[16:1],4^1[6:1],,8,,
{16}78,,7,8,,7,8,7,6,,5,6,,5,6,5,
7,,1,2,,1,2,1,3,,4,3,,4,3,4,
2,,1,7,,6,7,8,5,,6,7,,8,1,8,
2,,1,4,,2,4,3,2,,8,1,,7,3,,
{8}57,8,1,8,76,5,6,8,
18,8,1,3,14,2,1,2,
{16}4,2,4,3,1,2,8,2,8,1,7,8,6,5,6,7,
5,6,8,1,8,2,1,4,3,2,1,3,2,4,1,,
(360){8}4,2,1,8,6,,5,6,
8,1,2,,4h[2:1],,6,,
8,,4,3,1,8,7,,
5,7,8,1,3,,4,2,
3,1,8,6,5,,8,7,
5,6,8,,1h[2:1],,8,,
3,,4,2,1,8,7,,
5,8,5,6,8,,18,,
2,8,6,4,3,,7,1,
3,5,6,,8,,32,,
14,,4,6,1,3,5,,
5,3,8,6,4,,67,,
4,6,8,1,2,,5,3,
1,8,7,,4,,5,,
8,,6,4,2,8,3,5,
7,1,2,4,1b/5h[2:1],,,,
8h[1:1],,
1,,7,,1,,1h[1:1],,
8,,3,,8,,8,6,
7,,7,6,8,,1,3,
2,,2,3,1,,8h[1:1],,
1,,7,,7,,1h[1:1],,
8,,3,,3,,8,7,
6,,1,8,7,,1,2,
3,,1,2,4,,1h[1:1],,
2,,4,,3,,8h[1:1],,
6,,5,,7,,1,2,
3,,4,2,1,,8,7,
6,,5,6,8,,7,,
1,,1/8h[4:1],,2,,3h[4:1],,
8,,1/2h[4:1],,8,,18,,
8,1,2,,1,8,7,,
76,,1,8,7,5,8,,
36,,56,,34,,5,8,
6,1,8,,2,1,3,,
1,,27,,1,2,3,,
4,3,2,1,2,8,1,,
18,,71,,7,6,5,8,
7,,18,,1,2,3,,
23,,41,,4,3,2,8,
1,7,8,,18,,1,7,
6,7,8,5,8,7,1,2,
4,2,3,1,4,2,1,4,
3,1,8,6,5,6,7,5,
6,7,1,8,6,5,6b,6,
7,1,8,3,4,1,2b,2,
3,1,4,2,1,8,1b,1,
8,7,6b,6,8,5,3b,3,
8,1,2,7b,7,4,1,4h[8:3]/5h[8:3],,
,,67,,1h[1:11]/8h[1:11],,,,
{1},,,,,,,,,,
{8},,,,,,5,6,
7,8,1,2,3,4,3,2,
1,28,37,46,{16}5,4b,5,,{8}4h[1:1]/5h[1:1],,
,,,,,,,,



名前:
コメント:

タグ:

+ タグ編集
  • タグ:

このサイトはreCAPTCHAによって保護されており、Googleの プライバシーポリシー利用規約 が適用されます。

最終更新:2014年03月29日 21:54