M.S.S.Planet

アーティスト M.S.S.Project

BPM EASY BASIC ADVANCED EXPERT MASTER
145 2 3 6 10+ 12

EASY


BASIC

(145.0){1},
{2}1,1,
{2}2,3h[2:5],{1},,,
{1}4,
{1}3,
{1}4,
{1}4/5,
{1}5,
{1}6,
{1}5,
{1}4b,
{1}5h[2:1],
{2}5,5,
{1}6h[2:1],
{2}6,6,
{1}7h[2:1],
{2}7,7,
{1}8h[2:1],
{2}8,1/8,
{1}1-4[4:3],,
{1}3-6[4:3],,
{1}5-8[4:3],,
{1}7-2[4:3],,
{4}2,2,,,
{4}2,2,,,
{1}1h[2:1],
{1}8h[2:1],
{4}7,7,,,
{4}7,7,,,
{1}8h[2:1],
{1}1h[2:1],
{4}2,2,2,,
{4}3,3,3,,
{1}4h[2:1],
{1}5h[2:1],
{4}6,6,6,,
{4}7,7,7,,
{1}8h[2:1],
{2}1,1b,
{2}1/2,1/2,
{4}3,3,3,,
{2}3/4,3/4,
{4}5,5,5,,
{2}5/6,5/6,
{4}7,7,7,,
{2}1/8,1/8,
{4}1,1,1b,,
{4}8,8,8,,
{4}7,7,7,,
{4}6,6,6,,
{4}5,4,5,,
{4}3,3,3,,
{4}2,2,2,,
{4}1,1,1,,
{4}8b,8b,8b,,
{4}1,1,1,1,
{4}2,1,2b,,
{4}3,3,3,3,
{4}4,5,4b,,
{4}6,6,6,6,
{4}7,8,7b,,
{4}8,8,8,8,
{4}1,8,1b/8b,
E

ADVANCED

(145.0){1},
{4}2,2,3,3,
{8}4,5,4,5,3h[2:5],,,,
{4},5,{2}6h[2:3],{1},,
{2}8,8,
{2}2,2,
{2}4,4,
{4}6,,5/6,4/5,
{2}3,2,
{2}1,8,
{2}7,6,
{4}5,,4/5,3/4,
{4}3h[2:1],,4,5,
{2}5/6,3/4,
{4}6h[2:1],,5,4,
{4}3,4,5,6,
{4}7h[2:1],,8,1,
{2}1/2,7/8,
{4}2h[2:1],,1,8,
{4}7,8,1,1/8,
{1}1-6[2:1],
{4}7h[2:1],,6,6,
{1}7-4[2:1],
{4}3h[2:1],,4,4,
{1}3-6[2:1],
{4}7h[2:1],,6,6,
{4},4/8,3/7,2/6,
{4}1/5,2/6,3h[4:1]/7h[4:1],,
{4}8,2,5h[4:1],4,
{4}5,2,7h[4:1],8,
{1}7p2[8:3],
{1}2p7[2:1],
{4}6,3,5h[4:1],4,
{4}5,2,8h[4:1],1,
{1}2v4[8:3],
{1}8v6[8:3],
{4}3/7,6,5,3/4,
{4}2/6,3,4,5/6,
{4}7/8,6^3[4:1],,,
{4}1/2,3^6[4:1],,,
{4}1/7,2,4/6,3/5,
{4}2/8,7,3/5,4/6,
{4}7,3,4/5,,
{2}1h[2:1],8b,
{8}2,,5/6,,3,3,3,,
{4}7,8,1-4[8:1],,
{8}7,,3/4,,5,5,5,,
{2}1^3[8:1],8^6[8:1],
{8}4,,7/8,,2,2,2,,
{4}7,1,8-4[8:1],,
{8}2,,7/8,,4,4,4,,
{4}1/2,3/8,4h[4:1]/7h[4:1],,
{8}3,,2/8,,4,5,4,,
{2}8-6[8:1],1-3[8:1],
{8}6,,1/7,,5,4,5,,
{2}2^4[8:1],7^5[8:1],
{8}2,,1/3,,4,5,4,,
{1}2-6[2:1]/8-4[2:1],
{8}7,,6/8,,5,4,5,,
{4}1b,1b,1b,,
{8}2h[4:1],,8,,3,4,3,,
{2}6-4[8:1],1-5[8:1],
{8}7h[4:1],,1,,6,5,6,,
{2}2^5[8:1],6^1[8:1],
{8}2h[4:1],,1,,4,5,4,,
{4}4b/8b,3b/7b,2b/6b,1b/5b,
{8}7/8,,1/2,,5,4,5,,
{8}1,8,1,8,2h[2:5],,,,
{4},6,{2}7h[2:3],{1},,
E

EXPERT

(145.0){1},,,,,
{4},,,2/7,
{16}1h[16:3],,,2,,,,,7h[16:3],,,8,,,,,
{16}3h[16:3],,,4,,,,,5h[16:3],,,6,,,,,
{16}2h[16:3],,,1,,,,,8h[16:3],,,7,,,,,
{16}6h[16:3],,,5,,,6,,5,,4,,3,,,,
{16}2h[16:3],,,3,,,1,,3h[16:3],,,4,,,2,,
{16}7h[16:3],,,6,,,8,,6h[16:3],,,5,,,7,,
{16}3h[16:3],,,4,,,4,,6h[16:3],,,5,,,5,,
{16}7h[16:3],,,6q4[16:5],,,,,,,,,,,,,
{16}1h[16:3],,,2h[16:3],,,3,,3,,,,5/6,,,,
{16}8h[16:3],,,7h[16:3],,,6,,6,,,,3/4,,,,
{16}2h[16:3],,,3h[16:3],,,4,,4,,,,5/7,,,,
{16}7h[16:3],,,6h[16:3],,,5,,5,,,,2/4,,,,
{16}1h[16:3],,,8h[16:3],,,7,,7,,,,3/4,,,,
{16}8h[16:3],,,1h[16:3],,,2,,2,,,,5/6,,,,
{16}1h[16:3],,,8h[16:3],,,7,,7,,,,2/4,,,,
{16}8h[16:3],,,1h[16:3],,,2,,2^7[8:1],,,,,,,,
{16}4h[16:3],,,3h[16:3],,,2,,1,,,,3/4,,,,
{16}5h[16:3],,,6h[16:3],,,7,,8,,,,5/6,,,,
{16}1h[16:3],,,8h[16:3],,,7,,6,,,,3/4,,,,
{16}8h[16:3],,,1h[16:3],,,2,,3,,,,5/6,,,,
{16}3h[16:3],,,4h[16:3],,,5,,6,,,,1/2,,,,
{16}6h[16:3],,,5h[16:3],,,4,,3,,,,7/8,,,,
{4}3/4,1/2,5/6,1>8[2:1],
{4},,,1b/8b,
{2}6^3[4:1],2^7[4:1],
{4}5,5s1[4:1],,,
{1}3v2[2:1]/7v6[2:1],
{1}1q5[2:1]/5q1[2:1],
{16}1h[4:1],,,,7h[16:3],,,6h[16:3],,,7,,7,,,,
{16}8h[4:1],,,,2h[16:3],,,3h[16:3],,,2,,2,,,,
{16}2h[4:1],,,,4h[16:3],,,6h[16:3],,,7,,7,,,,
{8}2,1,8,,7,8,1,,
{16}8,,8,,2h[16:3],,,6h[16:3],,,5,,5,,,,
{16}1,,1,,7h[16:3],,,3h[16:3],,,4,,4,,,,
{16}5,,5,,3h[16:3],,,7h[16:3],,,8,,8,,,,
{4}5-8[4:1],4-1[4:1],,,
{16}1,,1,,7h[16:3],,,3h[16:3],,,4,,4,,,,
{16}8,,8,,2h[16:3],,,6h[16:3],,,5,,5,,,,
{8}4,4,4-8[4:1],,,,,,
{8}1h[4:3],,,,8h[4:1],,,7,
{8}7,,3>6[4:1],,,,,5,
{8}6,6,7,7,3h[4:1],,4,,
{2}4^2[8:1]/5^7[8:1],1^3[8:1]/8^6[8:1],
{8}2,3,1/4,,7,6,5/8,,
{4}1/5,3^8[4:1]/7^4[4:1],,,
{2}7/6-2[8:1],2/3-7[8:1],
{8}1/8,,2/7,,6,5,4,3,
{8}3,4,5-1[8:1],,,,2b/7b,,
{8}5,6,5/6,3,4,3,3/4,6,
{8}5,6,5/7,3,4,3,2/4,7,
{8}5,6,5/6,2,4,3,3/4,7,
{8}5,6,5/7,2,4,3,2/4,7,
{8}4,5,5/6,2,5,4,3/4,7,
{8}4,5,4/6,2,5,4,3/5,7,
{8}8,7,1/6,2,1,2,3/8,1,
{8}7b,5b,1b,3b,8h[4:1],,1b,,
{2}2-4[8:1]/5-8[8:1],5-2[8:1]/8-6[8:1],
{4}7b/8b,1b/6b,2b/5b,3b/4b,
{2}1-7[8:1]/3-5[8:1],7-3[8:1],
{4}5b/6b,4b/7b,3b/8b,1b/2b,
{8}8,8,1s5[4:1],,,,,,
{4}4b/5b,3b/6b,2b/7b,1b/8b,
{8}5/6p5[8:3],,,,,,,1b/8b,
{8}2b/7b,3b/6b,4b/5b,,2h[2:1]/7h[2:1],,,,
{4},5-8[2:3],{2}4-1[4:5],{1},,
E

MASTER

(145){16}
8h[4:1],,,,1h[4:1],,,,7,2,6,3,5,,4,,
3,,2,,1,,8,,
{4}7h[4:3],,,8>6[4:6],,,,,,,,,,,
{16}
81,,,3,4,,25,,81,,,6,5,,74,,
18,,,4,5,,36,,18,,,5,4,,36,,
18,,,2,4,,36,,18,,,7,5,,36,,
18,,,5,4,,36,,6q3[8:1],,6,,5,,5,,
34,,,7,2,,56,,78,,,3,6,,12,,
56,,,2,7,,34,,12,,,6,3,,78,,
13,,,2,7,,68,,24,,,3,6,,57,,
82,,,1,5,,46,,6q4[8:1],,6,,5,,5,,
6b,,,,1-7[8:1]/4-1[8:1],,,,,,,,1-6[8:1]/6-3[8:1],,,,
,,,4-1[8:1],,,5,,5,,,,6,,,,
,,,,8^5[4:1],,,,5^2[4:1],,,,2^7[4:1],,,,
3,,,4,,,5,,6<2[8:1],,,,3,,,,
,,,,7-3[8:1],,,,5-1[8:1],,,,8,,,,
6,,,4,,,2,,8z4[4:1],,,,8,,,,
,,,,1q6[8:1],,,,8p3[8:1],,,,,,,,
7,,,8,,,2,,1-6[8:1]/2-5[8:1],,,,,,,,
1,,5,,3,7,,,8/4,,,3/7,,,2/6h[1:1],,
,,7,,,2,,,5,,,1,,,4,,
,,8,,2,6,,,15,,,26,,,3h[1:1]/7,,
,,2,,,7,,,4,,,8,,,5,,
,,7,,4,5,,,1,,,7,,,3h[1:1],,
,,1,,,5,,,8,,,4,,,7,,
,,,,37,,,,4p7[12:1]/8p3[12:1],,,,
,,,,73,,,84,,,15,,26,,,,3b/7-2[4:1],,,,
{8}
2-5[4:1],,5-1[4:1],,1-4[4:1],,4-7[4:1],,
7^2[4:1],,2^5[4:1],,5^8[4:1],,,,
{16}
2h[4:1],,,,8h[16:3],,,1h[16:5],,,,,,,,,
1q5[4:1]/5q1[4:1],,,,,,,,,,,,,,,,
1/8-5[2:1],,,,2,,,2,,,3,,3,,,,
5/4-1[2:1],,,,6,,,6,,,7,,7,,,,
1,,2,,4,3,,8h[16:5],,,,,,,,,
8,,7,,5,6,,1h[16:7],,,2,,3,,4,,
1,,2,,3^8[16:1],4,,4,,,5,,6,,7,,
8,,7,,6^1[16:1],5,,5,,,4,,3,,2,,
3,,4,,8,7,,2h[16:5],,,,,4,,,,
6,,5,,1,2,,7h[16:5],,,,,5,,,,
1,,2,,5,4,,5h[16:3],,,4,,56,,34,,
8,,7,,4,5,,4h[16:3],,,5,,34,,56,,
27,,27,,18,18,,1h[16:5]/8h[16:5],,,,,,,,,
{8}
7h[4:2],,2-6[16:1],,2b,,,,
1^4[12:1]/5^8[12:1],,,,5^2[12:1]/1^6[12:1],,,,
1,2,3,4,6/5^2[12:1],,6h[4:1],,
5q2[6:1],,,,4p7[6:1],,,,
1,6,3,7,2-5[12:1]/7-4[12:1],,2b/7b,,
3q1[10:1],,,,7q5[10:1],,,,
15,26,37,48,1-6[12:1]/5-2[12:1],,,,
2-4[10:1],,6-8[10:1],,4-6[10:1],,8-2[10:1],,
,,4-1[12:1]/5-8[12:1],,4b/5b,,,,
3v1[12:1]/6v8[12:1],,,,
{16}
18,27,36,,45,,,,
{8}
1^6[12:1]/5^2[12:1],,,,6v8[12:1]/2v4[12:1],,,,
2p4[14:1],,,,7q5[14:1],,,,
2-5[12:1],2,8-4[12:1],8,1-5[12:1],1,7,7,
4-2[12:1]/8-6[12:1],,,,
{16}
18,27,36,,45,,84,,
{8}
73,62,51,84,8-4[12:1]/6-2[12:1],,8b/6b,,
8h[4:3],,4,,6,,2,,
3b/4b,7b/8b,4b/5b,1b/2b,5b/6b,,8-4[12:1],,
3<5[10:1],,,,
{16}
18,27,36,,4b/5-7[12:1],,,,
5b/1-5[12:1],,,,1b/8-4[12:1],,,,
8b/2-6[12:1],,,,2b,,,,
1-5[12:1]/8-4[12:1],,,,,,,,
12,83,74,,5b/6b,,,,
7^2[12:1]/3^6[12:1],,,,7b/3b,,,,
2p5[12:1]/6p1[12:1],,,,,,,,
1-4[12:1]/8-5[12:1],,,,,,,,
78,16,25,,3b/4b,,,,
1-6[12:1]/8-3[12:1],,,,1b/8b,,,,
5-8[12:1]/4-1[12:1],,,,4b/5b,,,,
3v4[12:1]/6v5[12:1],,,,,,,,
45,36,27,,1b/8b,,1q3[10:1],1,
,,,,8p6[10:1],8,,,
{4},,,4<5[4:6],
{1},,,

E

  • 一部間違っていた点を修正しました。 -- 通りすがりのマイマイマー (2015-03-28 19:29:22)
  • もう一か所間違いあったので修正。 -- 通りすがりのマイマイマー (2015-06-23 16:29:23)
  • 余計な部分を消しときました。Ver.別で変数が違うので。そこは自分で調整しろ、ということですね! -- 三日月-MIKAZUKI- (2020-05-07 13:29:41)
名前:
コメント:

タグ:

+ タグ編集
  • タグ:

このサイトはreCAPTCHAによって保護されており、Googleの プライバシーポリシー利用規約 が適用されます。

最終更新:2022年07月10日 14:38