MYTHOS

BPM EASY BASIC ADVANCED EXPERT MASTER
158 2 4 7+ 11 14

EASY


BASIC

(158){1},,,,,,,,
{1}1h[2:1],
{1}1h[2:1],
{1}2h[2:1],
{1}2h[2:1],
{1}3h[2:1],
{1}3h[2:1],
{1}4h[2:1],
{1}4h[2:1],
{1}5/6,
{1}5/6,
{1}3/4,
{1}3/4,
{1}1/2,
{1}1/2,
{2}8,8,
{1}1b/8b,
{1}2-6[2:1],
{1}7-3[2:1],
{2}2,2,
{2}1,1,
{1}8-4[2:1],
{1}1-5[2:1],
{2}6,7,
{2}8,1b/8b,
{2}2,3,
{4}4,4,4,,
{1}5h[2:1],
{4}6,,7,7,
{2}7,6,
{4}5,5,5,,
{1}4h[2:1],
{4}3,3,2,2,
{4}1,1,1b,,
{1}1-6[2:1],
{4},,7,7,
{1}7-4[2:1],
{4},,3,3,
{1}3-6[2:1],
{4},,7,7,
{1}7-2[2:1],
{4},,1,1,
{1}1-4[2:1],
{4},5,5,5,
{1}5-8[2:1],
{4},2,2,2,
{1}2-7[2:1],
{4},6,6,6,
{1}6-3[2:1],,,,
{4}1,2,1,2,
{4}8,8,,,
{4}8,7,8,7,
{4}1,1,,,
{4}1,1,2,2,
{4}3,3,4,4,
{2}4/5,3/6,
{2}2/7,1b/8b,
{4}1,,8,8,
{4}7,7h[2:1],,,
{4},6,6,5,
{4}5,5h[2:1],,,
{2}4/5,3/6,
{2}2/7,1b/8b,
{1}2-5[2:1],
{1}7-4[2:1],
{4}3,4,3,4,
{4}3-7[2:1],,,,
E

ADVANCED

(158){1}8h[4:31],,,,,,,,
{1}7h[4:3],
{1}6h[4:3],
{1}5h[4:3],
{1}4h[4:3],
{1}3h[4:3],
{1}2h[4:3],
{1}1h[4:3],
{1}8h[4:3],
{4}1,1,2,2,
{4}3,3,4,4,
{4}5,5,6,6,
{4}7,7,8,8,
{1}1-5[4:1],
{1}8-4[4:1],
{2}2-5[4:1],7-4[4:1],
{1}2b,
{1}1v3[4:1],
{1}3v5[4:1],
{4}5,5,7,7,
{4}2,2,4,4,
{1}8h[4:3],
{1}1h[4:3],
{2}2/7,2/7,
{4}1/8,2/7,3b/6b,,
{2}2h[4:1],4,
{4}8,7,6,,
{2}7h[4:1],5,
{4}1,2,3,4b,
{2}5,4,
{4}6,3,7,2,
{4}1/8,1/8,1/8,,
{4}2/7,2/7,2/7,,
{1}3h[2:1]/6h[2:1],
{4}3,3/4,6,5/6,
{4}2,3/4,7,5/6,
{4}4/5,3/6,2/7,1/8,
{4}1/8,2/8,3/8,4/8,
{4}4/8,3/7,2/6,1/5,
{4}1/5,2/6,3/7,4/8,
{2}8h[4:1],1h[4:1],
{4}1,3,5,7b,
{8}1,1,1,,5,5,5,,
{8}2,2,2,,6,6,6,,
{8}3,3,3,,7,7,7,,
{8}4,4,4,,8,8,8,,
{1}1v3[4:1]/8v6[4:1],
{4},1/2,7/8,3/6,
{1}1h[1:2]/8h[1:2],,,
{2}1-5[8:1],8-4[8:1],
{4}1b,,1,1,
{4}7,7,8,1,
{4}2,,5/6,3/4,
{4}1/2,7/8,2b,7b,
{8}3,3,3,,4,4,4,,
{8}5,5,5,,6,6,6,,
{2}3b,6,
{4}3/4,5/6,7/8,1/2,
{4}1b/2b,,3,4,
{4}5,6,5/6,4/5,
{4}3/4,,2,1,
{4}8,7,7/8,1/8,
{2}1/2,5/6,
{4}4/7,3/8,1/2,7/8,
{1}1-4[2:1]/8-5[2:1],
{4}4,5,3,6,
{4}1/2,3/4,5/6,7/8,
{1}1b/8b,
E

EXPERT

(158){1}5h[4:31],,,,,,,,
{1}2h[4:7]/1p4[2:1],
{1}4p7[2:1],
{1}7h[4:7]/1q6[2:1],
{1}6q3[2:1],
{1}3h[4:3]/7q5[2:1],
{1}5h[4:3]/3q1[2:1],
{1}1h[4:3]/5q7[2:1],
{1}7h[4:3]/1q2[2:1],
{4}7/2-5[8:1],7,7/5-1[8:1],7,
{4}7/1-6[8:1],7,7/6-2[8:1],7,
{4}2/7-4[8:1],2,2/4-8[8:1],2,
{4}2/8-3[8:1],2,2/3-7[8:1],2,
{4}7/2-6[8:1],7,7/6-1[8:1],7,
{4}1/7-3[8:1],1,1/3-8[8:1],1,
{4}8/1-5[8:1],8-4[8:1],2-5[8:1],7,
{16}2b/5b,,,4b/7b,,,6,5,6,,3,,4,,3,,
{16}4/6,,,,,,3h[8:3]/8-4[8:1],,,,,,,,3,5,
{16}3,,4,,,,6,4,6,,,,,,2,1,
{8}2-5[8:1],,,,7-4[8:1],,,1,
{16}7,,2,,,,8,1,8,,,,1b/7b,,,,
{16}3/5,,,,,,6h[8:3]/1-5[8:1],,,,,,,,6,4,
{16}6,,5,,,,3,5,3,,,,7,,,,
{16}1,,1,8,2b,,,,8,,8,1,7b,,,,
{16}1,8,1,8,2-5[8:1],,7-4[8:1],,,,,,,,,,
{16}5/6,,,,,,3,4,3,,,,,,6,4,
{16}6,,3,5,3,,6,5,6,,,,,,3,4,
{2}3-8[8:1],6-1[8:1],
{8}8h[4:1],1h[4:1],,7,2,,5/7b,,
{16}2b/4,,,,,,2,,2,,,1,,,8,,
{16}7,,8,7,8,,1,8,1,,2,1,2,,2,,
{16}8,,,3,4b,,,,1,,,6,5b,,,,
{8}7-5[8:1]/8-4[8:1],7/8,,,1-5[8:1]/2-4[8:1],1/2,,,
{16}7,8,7,8,7,,2,,1b,,,,,,,,
{16}1^6[8:3]/2p5[8:3],,,,,,,,,,,,,,8,7,
{4}8^3[8:3],6b,7b,8b,
{16}1q6[8:3]/2^5[8:3],,,,,,,,,,,,,,7,8,
{4}7^4[8:3],3b,2b,1b,
{1}5q2[2:1]/8q5[2:1],
{1}1p4[2:1]/4p7[2:1],
{8}7/8,6,5,4,1/2,3,4,5,
{8}1/8,2,3,4,1/8,7,6,5,
{4}3h[1:1],4,4,4,
{4}4-7[4:1],7-2[4:1],2-5[4:1],,
{4}7h[1:1],8,8,8,
{4}8-3[4:1],3-6[4:1],6-1[4:1],,
{16}2,,,5h[16:13],4,,,,4,,,,4,,,,
{4}4-7[4:1],7-3[4:1],3-8[4:1],,
{8}1,1,{4}1p4[4:5]/8q5[4:5],,,{1},
{1}3>4[4:3],
{1}6<5[4:3],
{48}2b,,,,,,,,,,,,,,,,,,2,,,1,,,2,,,,,,,,3,,,,,,,,4,,,,,,,,
{16}5,,,3,4,,,,6,4,6,,2,4,2,,
{16}7b,,,,,,1,7,8,,7,,6,,5,,
{16}4,,,6,5,,,,3,5,3,,7,5,7,,
{8}2,3,8,1,7,6,1,8,
{16}1,8,1,8,2,7,2,7,3,6,3,6,4,5,4,5,
{48}4b,,,,,,,,,,,,,,,,,,6,,,3,,,6,,,,,,,,4,,,,,,,,2,,,,,,,,
{16}1b/3b,,,2b/8b,,,1b/7b,,,6b/8b,,,7,,2,,
{16}8,,,,,,1/2,,1/2,,,3/8,,,4/7,,
{16}5/6,,,6,5,,,5,4,,,4,3,,,3,
{16}6,,,,1,8,1,8,2,,,6,,,7,,
{16}8,,,1b/7b,1b/7b,,,,2,8,3,7,4,6,5,,
{16}7,,,5,5,,,3,3,,,1,1,,,7,
{16}7,,3,,5,,1,,8,7,6,5,1,2,3,4,
{8}5,5,5-1[4:1],,,,,,
{8}4,8,2,5,2,6,4,7,
{16}1,7,2,6,3,7,2,8,3,7,2,8,1,7,2,6,
{1}1-5[4:7],,,
E

MASTER

(158){1}
3h[4:31]/5h[4:31],,,,,,,,

8p3[8:3]/4p7[8:3],
7q3[8:3]/3q7[8:3],
7^2[8:3]/3^6[8:3],
6p1[8:3]/2p5[8:3],
1s5[8:3]/5<1[8:3],
1p6[8:3]/5^2[8:3],
6q3[8:3]/2q7[8:3],
3s7[8:3]/7<3[8:3],
7v1[8:3]/3v5[8:3],
1p4[8:3]/5^8[8:3],
8q5[8:3]/4^1[8:3],
1v3[8:3]/5v7[8:3],
{2}
1q5[8:1]/5q1[8:1],1-6[8:1]/5-2[8:1],
2^7[8:1]/6^3[8:1],3q7[8:1]/7q3[8:1],
{4}
7-3[8:1],3-7[8:1],7<1[8:1],,
{16}8,,,8b,,,1,7,1-5[8:1],,8-4[8:1],,1,,8,,

2^5[8:1],,,,,,7,5,7^4[8:1],,,,,,2,4,
2,,36,,,,1-4[8:1]/5-8[8:1],26,37,,,,,,7,2,
7^4[8:1],,,,,,2,4,2^5[8:1],,,,7-3[8:1],,,7,
7,,1,,,,4-1[8:1]/8-5[8:1],37,26,,,,,,,,
1s5[8:1],,,,,,8,7,6z2[8:1],,,,,,1,8,
7,,18,,,,1-5[8:1]/8-4[8:1],27,36,,,,,,,,
1,,28,1,,,45,,8,,17,8,,,45,,
27,,18,18,,,36,,7,5,2,4,7,5,2,4,

{4}
8-3[8:1],8/3-6[8:1],3/7-3[8:1],7,
7-4[8:1],7/4-8[8:1],4/2-5[8:1],2,
{8}
8^5[4:1],8,5s1[4:1],5,1^4[4:1],1,4z8[4:1],4,
8^5[4:1],8,5-2[4:1],5,2p7[4:1],2,,,
{16}
1b,,,,3,4,3,6,5,6,4,5,4,,6,3,
12,,,56,,,12,,34,,,78,,,45,,
8z4[8:1],,,,2,,,2,2s6[8:1],,,,5,,5,,
7p2[8:1],,5,,3,,,,3p6[8:1],,2,,1,,8,,
{24}6,5,4,3,2,1,8,7,,5,,,{16}4,,,,8,,,,

1,8,1,8,1,7,1,8,2,8,1,7,2,8,1,7,
1,8,3,8,1b,8,3,8,1b,8,3,8,1b,8,3,8,
1b,7,1,7,5,7,5,7,5,3,5,3,5,7,5,7,
2,6,4,6,2b,6,4,6,2b,6,4,6,2b,6,4,6,
2b,8,2,8,2,4,2,4,6,4,6,4,2,4,2,4,
3,7,2,6,1,5,8,4,7,3,8,4,1,5,2,6,
2,1,3,8,4,7,5,6,3,4,2,5,1,6,8,7,
1,5,3,7,2,6,4,8,3,7,1,5,4,8,2,6,

2b,1,2,3,2,,7,8,7,6,7,1,8,2,,7,
2,4,3,7,1,,7,5,6,2,8,,1,5,,4,
7,5,7,5,7,1,7,1,5,1,5,1,5,3,5,3,
6,1,4,8,5,,2,7,3,8,1,5,4,8,2,6,
3,7,2,6,3,,8,4,5,1,8,4,5,1,8,4,
7,3,6,2,7,,1,5,3,7,2,6,4,8,1,5,
{1}
4>5[2:3],
,
{16}
5,,2,3,2,,7,6,7,,2,1,2,,7,8,
7,1,8,1,8,1,8,1,18,18,18,18,18,18,27,36,

4b/5b,,,,,,8,7p2[8:1],6,,,5,,,5,,
4-1[8:1],,,4,4,,,,8,7,6,5,1<5[8:1],2,3,4,
,,,,,,8,1,2q8[8:1],,6q4[8:1],,,,,,
1,,,8,1,,,,6,4,5,3,8,7,6,5,
1,2,3,4,8,7,6,5,2,3,4,5,7,6,5,4,
8,1,2,3,2,1,8,7,8,7,6,5,1^6[8:1],2,3,4,
5b,,,,,,1,8,2,,,45,,,27,,
34,,,56,,,12,,,78,,,18,,36,,

2b,,,,,,6,5,7h[16:3],,,3h[16:3],,,8,,
1-5[8:1],,,1,8-4[8:1],,,1,2-5[8:1],,,2,7-4[8:1],,,7,
2b,,,,5,4,5,4,5h[16:3],,,2h[16:3],,,8,,
1,,,7,7^4[8:1],,,,8,1,2,3,4,5,6,7,
8,,,12,12,,,56,56,,,34,34,,,78,
{24}78,1,2,7,6,5,1,2,3,8,7,6,2,3,4,7,6,5,3,4,5,6,5,4,

{16}
1,8,2,7,1,,8,6,8,,1,3,1,,7,5,
7,,2,4,2,,5,4,5,4,5,3,6,4,5,4,
5,6,7,8,1,2,3,4,
{32}
5,6,7,8,1,2,3,4,
5p2[2:1],6,7,8,1,2,3,4,
{1}
,
,
,
E

名前:
コメント:

タグ:

+ タグ編集
  • タグ:

このサイトはreCAPTCHAによって保護されており、Googleの プライバシーポリシー利用規約 が適用されます。

最終更新:2022年05月06日 04:30