CYCLES

BPM EASY BASIC ADVANCED EXPERT MASTER
135 2 5 7 9+ 13

EASY


BASIC


ADVANCED


EXPERT

(135)
{2}1-5[8:1],8-4[8:1],
2-5[8:1],7-4[8:1],
1-3[8:1],5-7[8:1],
3-5[8:1],7-1[8:1],
1-6[8:1]/2-5[8:1],7-4[8:1]/8-3[8:1],
1q6[8:1]/2^5[8:1],7^4[8:1]/8p3[8:1],
4-8[8:1],2-6[8:1],
{8}15,48,37,26,15,,1b/8b,,

3,4,3,5,3,6,,6,
5,6,4,6,3,6,,3,
2,1,8,7,6,5,4,5,
3,6,2,7,1,8,,1,
1,3,5,7,1,6,,5,
8,6,4,2,8,3,,4,
2,1,8,7,6,3,4,5,
18,18,12,78, 12,,,3,

{8}3h[8:3],,,5, 5h[8:3],,,7,
{4}7h[4:1],8h[4:1], 1h[4:1],2b,
{8}2h[8:3],,,8, 8h[8:3],,,6,
{4}6h[4:1],5h[4:1], 4h[4:1],3,
{2}2-6[8:1], 8-4[8:1],
7^2[8:1], 3^6[8:1],
2p3[8:1], 7q6[8:1],
{4}4,4-1[8:1]/5-8[8:1],,,
{1}2b/7b,

{2}4^1[8:1]/5p8[8:1],1p4[8:1]/8^5[8:1],
4^1[8:1]/5p8[8:1],1p4[8:1]/8^5[8:1],
{4}1h[4:1],3,8h[4:1],6,
2h[2:1],4b,6h[4:1],8b,
8>4[4:2],7,6,5, 1<5[4:2],2,3,4,
1/8^5[4:1],, 5/4^1[4:1],,
8h[4:3],6b,4b,2b,

{2}1p4[8:1]/8^5[8:1],4^1[8:1]/5p8[8:1],
1p4[8:1]/8^5[8:1],4^1[8:1]/5p8[8:1],
{8}2,3,4,5,6,7,8,1,
{4}8,1^4[8:1]/8^5[8:1],,,
1v3[4:1],, 2v4[4:1],,
3v5[4:1],, 4v6[4:1],,
5-3[8:1],, 6-2[8:1],,
7-1[8:1],, 8b,8b,

{1} 1<4[4:2],2v5[8:3]/8v5[8:3],1<4[4:2],8-5[8:3]/3-6[8:3],
{4} 7-2[4:1],2<4[8:3],,, 2^7[4:1],7-3[4:1],3^6[8:1],,
{2} 8-4[8:1],1-5[8:1],
{4}27,4-1[8:1]/5-8[8:1],,,

{2}1^4[8:1]/5p8[8:1],4q1[8:1]/8^5[8:1],
1^4[8:1]/5p8[8:1],4q1[8:1]/8^5[8:1],
1h[4:1]/5h[4:1],3h[4:1]/7h[4:1],
{8}48,37,26,15, {2}4b/8b,
8v6[4:1],7v5[4:1],
6v4[4:1], {8}5,,3,2,
1b,,6,7, 8b,,1,8,
2,7,3,6, 4b/5b,,8,4,

{2}4q1[8:1]/8^5[8:1],1^4[8:1]/5p8[8:1],
4q1[8:1]/8^5[8:1],1^4[8:1]/5p8[8:1],
{8}1,,8,7, 6,,4,5,
4,5,2-6[8:1],7, ,,5,5,
{2}4-7[8:1], 5-2[8:1],
8-3[8:1], 1-6[8:1],
{4}1,8-6[8:1],,1-5[8:1],
,2-4[8:1],,6,
{1}1b/8b,,

E

MASTER

(135)
{4}2^5[8:1],1,8^3[8:1],7,
6^1[8:1],5,4^7[8:1],3,
2^7[8:1],3,4^1[8:1],5,
6^3[8:1],7,8^5[8:1],1,
2p5[8:1],1,8p3[8:1],7,
6p1[8:1],5,4p7[8:1],3,
2q7[8:1],3,4q1[8:1],5,
6q3[8:1],7,8q5[8:1],2b,

8>4[4:1],4q5[8:3],2,1,
1<5[4:1],5p4[8:3],7,8,
1^3[8:1],7^5[8:1],2^4[8:1],1^7[8:1],
5^3[8:1],1s5[8:2],,,
7^4[4:1],4p2[4:1],2^7[8:1],,
2^5[4:1],5q7[4:1],7^2[8:1],,
8^6[8:1],2^4[8:1],7^5[8:1],8^2[8:1],
4^6[8:1],8z4[8:2], {8},,,1p4[8:1],

1h[4:1],,,8q5[8:1], 8h[4:1],,,1,
1>5[4:1],,5q7[16:3],, 8,,1,1s5[8:1],
1h[4:1],,,8z4[8:1], 8h[4:1],,,8,
8<4[4:1],,4p2[16:3],, 1,,1,1q6[8:1],
1h[4:1],,,8p3[8:1], 8h[4:1],,,1,
1^4[8:1],,1q5[8:1],, ,,7,7q6[8:1],
7h[4:1],,,2p3[8:1], 2h[4:1],,,7,
{4}7^4[4:1],4^1[4:1],1s5[8:5],,

,,,1^4[4:1],

4q1[4:1],1^4[4:1],4q1[4:1],1^4[4:1],
4q1[4:1],1^4[4:1],4b,8^5[4:1],
5p8[4:1],8^5[4:1],5p8[4:1],8^5[4:1],
5p8[4:1],8^5[4:1],5b,8^3[4:1],
3q8[4:1],8^3[4:1],3q8[4:1],8^3[4:1],
3q8[4:1],8^3[4:1],3^6[4:1],6^1[4:1],
1q6[4:1],6^1[4:1],1q6[4:1],6^1[4:1],
1q6[4:1],6,8b,1>6[4:1],

6q3[4:1],3<8[4:1],8q5[4:1],5<2[4:1],
2q7[4:1],7^2[4:1],2b,8<3[4:1],
3p6[4:1],6>1[4:1],1p4[4:1],4>7[4:1],
7p2[4:1],2^7[4:1], 7b, {8}1^4[8:1],4q1[8:1],
,,8^5[8:1],5p8[8:1], ,,1^6[8:1],6p1[8:1],
,,8^3[8:1],3q8[8:1], ,,3^6[8:1],6q3[8:1],
,,7^2[8:1],2q7[8:1], ,,2^5[8:1],5q2[8:1],
,,7^4[8:1],4p7[8:1], ,,2b,,

{1}1<3[4:2]/3q1[4:2],8>6[4:2]/6p8[4:2],
1q2[4:2]/2>6[4:2],8p7[4:2]/7<3[4:2],
5<3[4:2]/2q5[4:2],4>6[4:2]/7p4[4:2],
8<3[4:2]/4p1[4:2],
{4}4^2[8:1]/5^7[8:1],4-1[8:1]/5-8[8:1],,5^8[8:1]/1^4[8:1],

1p5[8:1]/5p1[8:1],5^8[8:1]/1^4[8:1],1p5[8:1]/5p1[8:1],5^8[8:1]/1^4[8:1],
1p5[8:1]/5p1[8:1],5^8[8:1]/1^4[8:1],5b/1b,7v1[8:1]/5-1[8:1],
,2v8[8:1]/4-8[8:1],,84,
6v8[4:1]/2v4[4:1],,,8^5[8:1]/4^1[8:1],
4q8[8:1]/8q4[8:1],8^5[8:1]/4^1[8:1],4q8[8:1]/8q4[8:1],8^5[8:1]/4^1[8:1],
4q8[8:1]/8q4[8:1],8^5[8:1]/4^1[8:1],8b/4b,4-8[8:1]/3v5[8:1],
,5-1[8:1]/6v4[8:1],,81,
6p1[4:1]/3q8[4:1],,,7^4[8:1]/3^8[8:1],

3q7[8:1]/7q3[8:1],7^4[8:1]/3^8[8:1],3q7[8:1]/7q3[8:1],7^4[8:1],
8^3[8:1],7^4[8:1],,6^1[8:1]/2^5[8:1],
2p6[8:1]/6p2[8:1],6^1[8:1]/2^5[8:1],2p6[8:1]/6p2[8:1],2^5[8:1],
1^6[8:1],2^5[8:1],,6^1[8:1]/2^5[8:1],
6b/2b,1^6[8:1]/5^2[8:1],1b/5b,7^4[8:1]/3^8[8:1],
7b/3b,4^7[8:1]/8^3[8:1],4b/8b,5^8[8:1]/1^4[8:1],
1p5[8:1]/5p1[8:1],5^8[8:1]/1^4[8:1],51,8^5[8:1]/4^1[8:1],
4q8[8:1]/8q4[8:1],8^5[8:1]/4^1[8:1],4q8[8:1]/8q4[8:1],8<4[1:1]/4>8[1:1],
{1},,

E


  • 本来^のところを<と>になっていて正常に動作しなかったところを修正しました。 -- 通りすがりのマイマイマー (2015-03-04 15:04:31)
名前:
コメント:

タグ:

+ タグ編集
  • タグ:

このサイトはreCAPTCHAによって保護されており、Googleの プライバシーポリシー利用規約 が適用されます。

最終更新:2021年05月10日 21:50