FLOAT MIND[stage effects](創作譜面:shimelar)

曲名 FLOAT MIND[stage effects]
制作者名 shimelar
音源
譜面動画
制作者コメント Twitter-@shimelar
BPM EASY BASIC ADVANCED EXPERT MASTER
145 - - - - 11

EASY


BASIC


ADVANCED


EXPERT


MASTER

(145)
{5}
8,8,8,,,
{1}
1,
{5}
1,1,8,,,
{4}
1,,,{24}1,,,,8,,
{5}
1,1,2^5[2:1],,,
{2}
1<5[2:1],,
{5}
7,8,8>4[2:1],,,
{4}
8,,8,{16}8,1,,2,
{5}
1,8,8<4[2:1],,,
{2}
7>4[2:1],,
{5}
1,2,2<5[2:1],,,
{4}
2,,2,{16}1,7,,7,
{5}
3,3>6[2:1],3,,,
{1}
2,
{5}
7,7,7>5[2:1],,,
{2}
6,{16}2,1,3,8,2,,8,,
{4}
7b/1b,6,8,3,
1,6,{8}8,4,1,5,
{4}
17,5,82,4,
68,3,{8}13,6,2,4,
{4}
8p4[4:1],6,7,3,
1q5[4:1],3,2,6,
8q4[4:1],1,2,5,
1p5[4:1],8,7,{8}4,7,
8z4[6:1],8,,1p4[4:1],,1,,3h[4:1],
,2,,3,,3q8[4:1],,2,
1,2h[4:1],5,6,4,1,,8,
,8-4[8:1],,7q3[8:1],,6,6v4[8:1],5,
3,2-6[6:1],,2h[2:1],,5,7,3<7[4:1],
,3,3,2-4[6:1],,,5,,
3,,8,6h[4:1],,1,,81,
,78,,1-6[12:1]/2-5[12:1],,,,{16}6,7,
8,,5,,6,,3,2,1,,3,,2,,{8}3h[4:1],
1,4h[4:1],8,5h[4:1],7,6h[4:1],,{16}4,7,
8,,6,,5,,5,2,1,,3,,{8}4,5,
6h[4:1],8,5h[4:1],1,4h[4:1],2,3h[4:1],,
{16}8,7,5,,6,,4,,1,2,4,,{8}3,5,
7h[4:1],5,2h[4:1],4,8h[4:1],5,1,,
4h[2:3],,3,7p5[8:9],7,,,,
,,,,,,,,
1h[4:1]/8h[4:1],,,12,,56,,34,
3-1[8:1]/4-8[8:1],,4b,,1,2,7,6,
3h[4:1],,{16}5,,,8,{8}7h[8:3],1,2,3h[4:1],
6,6h[4:1],5,4h[4:1],,5q1[6:1],5,,
8h[4:1],,2h[4:1],,3h[4:1],,5h[4:1],,
4p2[4:1],,,,1,1-5[6:1],8,7,
6h[4:1],,5h[4:1],,3h[4:1],,4,65,
,32,,8-3[8:1]/7-4[8:1],,,,,
1h[8:3]/8h[8:3],,,,,23,,56,
5-1[8:1]/6-8[8:1],,5b,,1,2,7,6,
3h[4:1],,{16}5,,8,8,{8}7h[8:3],1,2,3h[4:1],
6,6h[4:1],5,4h[4:1],,5q1[6:1],5,,
8h[4:1],,2h[4:1],,3h[4:1],,5h[4:1],,
4p2[4:1],,,,1,1-5[6:1],8,7,
6h[4:1],,5h[4:1],,3h[4:1],,4,5h[8:3]/4,
6,,2,,8-3[8:1]/7-4[8:1],78,,,
{4}
2h[4:7],,,,
,,,3v6[4:1],
3p8[4:3],,,,
,,,7v4[4:1],
7q2[4:3],,,,
,,,1v4[4:1],
1p6[4:3],,,,
{8}
8h[8:5],,,1s5[6:1],,,,2,
{16}
1v4[24:1],,,8h[16:3],,,7h[8:1],,8v3[24:1],,,7h[16:3],,,5h[8:1],,
6v1[24:1],,,5h[16:3],,,4h[8:1],,2v8[24:1],,,3h[16:3],,,1,,
3-7[24:1],,,5h[16:3],,,6,,6p1[24:1],,,8h[16:3],,,7,,
7q4[24:1],,,5,,,3q1[2:1],,{8},,,2,
{8}
2h[8:3],,,8,,8,,8h[2:1],
,,,4,4,,3,78,
,12,,68,,13,,57,
,24,,1p4[6:1]/7q4[6:1],,,,,
8/1h[4:1],,8,25,,34,,56,
6p1[6:1]/5-1[6:1],,5b,,{16}2,,6,5h[16:5],6,,2,3,
4,,,,{24}1,,,,8,8,{16}7h[4:1],,1,2,3h[4:1],,7,6,
5h[4:1],,2,3,4h[8:3],,5,,,,8,,8/4q1[6:1],,,,
2h[4:1],,,3,3h[4:1],,,7,7h[4:1],,,8,8h[4:1],,,,
1>7[8:5],,,,,,,,8,,1,2,3,,4,5,
6h[4:1],,,5,5h[4:1],,,3,3h[4:1],,,8,8,,38,,
{8}
,34,,6>1[4:1]/1z5[4:1],,,,,
2/8h[4:1],,2,57,,24,,34,
3q8[6:1]/4-8[6:1],,4b,,3,5h[8:1],7h[8:1],1h[8:5],
4,,4,3,3^6[4:1],6,6-1[4:1],1,
1q4[4:1],4,4^2[8:1],5,,1,1,,
1-3[6:1],,1-7[6:1],2h[4:1],1-4[6:1],,1-6[6:1],8h[4:1],
1s5[4:1],,,,2,6,{16}6,2,6,2,
{8}
5h[4:1],,4h[4:1],,3h[1:1],,2<4[4:3],2,
,,,,,,,,
{16}
8,,1,7,,2,8,,3p7[8:1],1,,2,3,4,4,,
1,,8,2,,7,1,,6q2[8:1],8,,7,6,5,5,,
3,,4,3,,5,2q7[12:1],,1p4[12:1],6,2,,1,,,,
7q4[16:1],7,1v3[16:1],,1,,1,8,8z4[12:1],,,,3,,2,6,
{1}8b,,,E


名前:
コメント:

タグ:

+ タグ編集
  • タグ:

このサイトはreCAPTCHAによって保護されており、Googleの プライバシーポリシー利用規約 が適用されます。

最終更新:2014年05月19日 20:57