ありふれたせかいせいふく(創作譜面:あすこ・ナビ・はるかぜ・ぐるん)

曲名 ありふれたせかいせいふく
制作者名 あすこ・ナビ・はるかぜ・ぐるん
音源 http://www.nicovideo.jp/watch/sm18131841
譜面動画 MASTER
制作者コメント 合作創作譜面第二弾です!今回は「天樂」のメンバーの3人に加え、もう一人譜面センス抜群のスペシャルゲスト、あすこさんにも譜面を作ってもらいました!
今回も修正なしでただ繋いだだけなのに結構いい感じになりました!皆さんも楽しんで視聴してみて下さい!

あすこ→@DJ_MARISA、http://www.nicovideo.jp/mylist/44450862
ナビ→@navidai_1015、http://www.nicovideo.jp/mylist/36539577
はるかぜ→@Etarnal_wind、http://www.nicovideo.jp/mylist/42460793
ぐるん→@grgrgurun、http://www.nicovideo.jp/mylist/36462701
ぐるんのブログ:http://grgurun.blog.fc2.com/
BPM EASY BASIC ADVANCED EXPERT MASTER
150 1 1 1 1 12

EASY


BASIC


ADVANCED


EXPERT


MASTER

(150)
{8}7^2[4:1],,,4,4v5[4:1],,,7,7h[8:3],,,4,
{12}75,84,15,24,35,,
{16}3,4,5,63,,,
2v4[8:1],,5v2[8:1],,,7,,7,,,
76,76,,12,,6,5,7,,13,,2,


{16}1,3,5,7,
{4}2s6[2:1]/8z4[2:1],,,,
{4}7z3[2:1]/1s5[2:1],,,,
{4}7v6[2:1]/4q1[2:1],,,,


{8}1h[8:2]/8h[8:2],,,
{16}18,18,,37,,26,
45,4,45,5,

7,8,1,2,1-5[16:1],,1,,
1,,
6,7,8,,1,,
18,,27,36,45,,45,,
5,4,6,3,7,,1,,

7,8,6,1,5-1[16:1],,5,,
5,,,7,,2,,,
7>3[6:1],,,4,,,4,,
2<6[6:1],,,5,,,5,,

4,5,3,6,2,,7,,
{4}1s5[6:1]/8z4[6:1],,

{16}1,8,2,7,3,,6,,
{4}4z8[6:1]/5s1[6:1],,


{16}
3,4,5,6,5,,5,,
7,8,1,2,1,,1,,


6,7,8,1,
5,4,3,2,
6,7,8,1,
26,37,84,51,



{16}
62,,,1,6,,1,,6,2,,2,6,,2,,

63,,,3,6p3[4:1],,3,,6,,,,1,,1,,

1h[4:1],,,,2,,3,,4,,5,,6,,7,,

8h[4:1],,,,,,1,,18,,,,8b,,,,

37,,,8,3,,8,,3,7,3,7,3,,7,,

36,,,6,3-6[16:1],,6,,3,,,,1,,1,,

1,,4,,4,,8,,8,,5,,5,,5,,

8^5[16:1]/1^4[16:1],,,,8-4[16:1]/1-5[16:1],,,,81,,,,1b,,,,

8,,,1,8,,8-6[8:1],,8-2[8:1],,8-4[8:1],,8,,8,,

1,,,8,1,,1-3[8:1],,1-7[8:1],,1-5[8:1],,1,,1,,

8,,,1,8,,8-2[8:1],,8-6[8:1],,8-4[8:1],,8-5[8:1],,8-3[8:1],,

{8}

8-6[8:1],8-2[8:1],8-4[8:1],8,8b,,,5,

8,,,4,1,,,5,8h[4:3],,

7,6,5,4,3,2,1,2,

3,4,5,,6>7[2:1],6,,,

,,,,,

1^3[8:1],8,7^5[8:1],8,1^4[8:1],8,7^4[8:1],8,

1>5[8:1],8,7<3[8:1],8,1^3[8:1],8,,,

8^6[8:1],1,2^4[8:1],1,8^5[8:1],1,2^5[8:1],1,

8<4[8:1],1,2>6[8:1],1,8^6[8:1],1,,,

8>6[8:1],7,6>8[8:1],7,8>6[8:1],7,6>8[8:1],7,

8>6[8:1],7,6>8[8:1],7,8^6[8:1],,,,

4,2,,,5,7,,,

,,4,,8,8,2,1,

8,7<8[4:3],,,,,,,

,,,,,,,,

,

{16}

7,8,7,8,7,,2,1,2,,3,4,3,,4,,

3,,3,4,3,,2,5,2,,1,6,1,,6,,

7,8,7,8,7,,2,1,2,,3,4,3,,,,

6,5,6,5,6,,2,1,2,,8,1,8,,,,



{16}1-6[8:3],,,1,,,7-3[16:1],,7,,,,{16}2-4[16:1],,2,,
6-2[8:3],,,6,,,3-1[16:1],,3,,,,{16}8-5[16:1],,8,,
8p4[8:3],,,8,,,6-2[16:1],,6,,,,{16}1-3[16:1],,1,,5-1[4:1],,,,5,,,,
8,7,6,5,4,3,2,1,8p6[4:1],,,,8,,,,2-7[16:1],,2,2,2,,,,
7,6,5,4,1,2,3,4,6,5,4,3,2,3,4,5,
{8}26,48,15,37,18,37,25,46,87,65,43,21,{16}1b/8b,,18,27,3-6[16:1]/6,45,45,,
3,,7-1[16:1],2,7,,7,,3-5[16:1],1,1,,3/1-5[16:1],,1,,
1,,6-8[16:1],2,6,,6,,2-4[16:1],8,8,,2/4-7[16:1],,,,
4,,8-2[16:1],3,8,,8,,4-6[16:1],2,2,,4/2-6[16:1],,2,,
2,,7-1[16:1],3,7,,7,,{8},,,
2-6[8:1],6-2[16:1],,,7-3[8:1],3-7[16:1],,,2-4[16:1],
2,1-4[16:1],1,8-4[16:1],7-4[16:1],7,,,
4-2[8:1],4-1[8:1],4-8[8:1],4-7[8:1],4,4-6[8:1],4,4b,,,,,,,,

{16}15,2-4[16:1]/6-8[16:1],37,,,,,,84,7-5[16:1]/3-1[16:1],62,,,,,,
27,4v2[16:1]/5v7[16:1],2^4[8:1]/7^5[8:1],,{8},,,36,27,18,
{16}17,8,17,,26,,26,,82,1,82,,{8}17,27,18,78,67,56,45,3h[4:1]/4h[4:1],,,
{16}78,61,52,,61,,34,,21,38,47,,38,,65,,
5-7[16:1],5,4-2[16:1],,5-8[16:1],,4-1[16:1],,5,,{8}4,,,
{16}7q4[8:1],3,7h[4:1],,,,,,2p5[8:1],6,2h[4:1],,,,,,,,,,
{8}7-2[8:1],2-5[8:1],5-8[8:1],8-4[8:1],4-1[8:1],1-5[4:5],,,,,,,,,,2,2,2,2,
{12}3,3,3,3b,,,
{16}7h[16:3],,,6h[16:3],,,5h[16:2],,6h[16:3],,,7h[16:2],,
8h[16:3],,,7h[16:2],,6h[16:2],,,5h[16:3],,,6h[16:2],,7h[16:2],,,8h[16:3],,,
1h[16:3],,,2h[16:3],,,1h[16:2],,2p6[16:1],,2,,2b,,,,
8h[16:3],,,7h[16:3],,,8h[16:2],,7q3[16:1],,7,,7b,,,,
{2}1p4[2:3],,8q5[2:1],,



{16}
27,,8,8,7,7,6,6,7,8p4[16:1],1,2,,18,,,
3,4,2-6[16:1],5,1,,2,,8-2[16:1],8-6[16:1],8-4[16:1],8,,,,,
5,4,5,6,5-1[8:1],3,5,,5,,3,2,,5,6,7,
18,,2,2,5,7,7,,3,3,6,6,,45,45,45,
4h[2:1]/5h[16:3],,,,6,,7,,8^6[16:4],,,,1,2,3,4,
5h[8:1],,,,1,8,,24,,57,,,3,6,4,5,
4,3,2,1,8,7,6,5,4,3,2,1,8q3[16:8],7,6,5,
4h[16:6],,,,,,,,5,,6,,4,6,2,8,,,,,
(150){4},
(150){16}
1,2,3,4,5,6,7,8,1,2,3,4,8z4[4:3],7,6,,
(150){4}
4,3,2,1b,
(150){16}
1,2,3,7,4,3,2,6,5,4,3,2,1p6[16:14],,,,
8,,7,,6,,5,,4,,3,3,,2,2,,

4,3,2,1,8^6[16:1],6^4[16:1],4^2[16:1],2^8[16:1],8-5[1:1],,,,,,,,
(150){4}
1,2,3,4b,
(150){16}
36,,,,12,,78,,4h[4:1]/5h[4:1],,,,,,27,,,,
1p4[2:1]/5p8[2:1],,37,,15,,,,,,,,,,
1-7[16:1]/2,,1/2-4[16:1],,,,,,56,,56,,,,51,,26,,3q1[4:1]/7q5[4:1],,48,,3b/7b,,,,,,,,

2-4[16:1],3,4-2[16:1],,,,,,7-5[16:1],6,5-7[16:1],,,,,,18,27,36,,35,,37,,38,,84,,82,,81,,
3-5[16:1],2,3-1[16:1],,,,,,6-4[16:1],7,6-8[16:1],,,,,,1,,45,,13,,4-1[16:3]/5-8[16:3],,68,,4b/5b,,,,,,
2-8[16:1]/7,27,2/7-1[16:1],,,,,,2-6[16:1],6-2[16:1],4,8,,,,,18,27,3v6[8:1]/6^3[8:1],,3^6[4:1]/6v3[4:1],,36,,,,,,,,,,
4,5,6h[2:1],,2,,2,,5,4,3h[8:3],,7,,7,,8,7,6h[4:1],,1,2,3,,4-6[16:1]/5-3[16:1],36,27,,,,,,



{16}
1-3[16:1],8,7-5[16:1],,
1,,7,,
5-7[16:1],4,3-1[16:1],,
5,,3,,
1,8,
{8}1-4[16:1]/8-5[16:1],27,
1-3[16:1]/8-6[16:1],27,
1-4[16:1]/8-5[16:1],27,
18,
{16}
8-6[16:1],1,2-4[16:1],,
8,,2,,
4-2[16:1],5,6-8[16:1],,
4,,6,,5,,

{8}8-5[16:1]/1-4[16:1],72,
1-3[16:1]/8-6[16:1],72,
1b/8b,,,

{16}
1-3[16:1]/8-6[16:1],27,3-5[16:1]/6-4[16:1],,
{8},,

{16}
4-2[16:1]/5-7[16:1],36,2-8[16:1]/7-1[16:1],,
{8},,

{16}4,5,36,,
{8}1b/7b,2b/8b,1b/7b,2b/8b,,,
{16}
1,6,2b,7,3,8,2,7,1,6,
2b,7,2,7,3,7,
{32}4,5,3,6,{4}4,,
{16},,2,7,18,,36,,
{4}2b/7b,,

{16}7,8,1,2,1-5[16:1],,1,,
1,,
6,7,8,,1,,
18,,27,36,45,,45,,
5,4,6,3,7,,1,,

7,8,6,1,5-1[16:1],,5,,
5,,,7,,2,,,
7>3[6:1],,,4,,,4,,
2<6[6:1],,,5,,,5,,

4,5,3,6,2,,7,,
{4}1s5[6:1]/8z4[6:1],,

{16}1,8,2,7,3,,6,,
{4}4z8[6:1]/5s1[6:1],,


{16}
3,4,5,6,5,,5,,
7,8,1,2,1,,1,,

{16}3b/1b,,5,4b/6b,,8,1b/7b,,3,2b/4b,,7,
8b/6b,,1b/3b,,
{8},,{4}7v6[1:2]/4q1[1:2],,,,
{4},,,,,,,
{32},,5s1[8:1],,
{1},
E

名前:
コメント:

タグ:

+ タグ編集
  • タグ:

このサイトはreCAPTCHAによって保護されており、Googleの プライバシーポリシー利用規約 が適用されます。

最終更新:2014年06月09日 23:41