OMAKENO Stroke(創作譜面:NaViDai)

曲名 OMAKENO Stroke
制作者名 NaViDai(ナビ)
音源 http://www.nicovideo.jp/watch/sm23656747
譜面動画
制作者コメント ノーツ数:819(TAP/663 HOLD/20 SLIDE/98 BREAK/38)
今回はGroove Coaster収録曲である、ガラクタでおなじみt+pazoliteさんの「OMAKENO Stroke」で創作譜面を作りました!
ガラクタの類似譜面ということもあり、かなり高難易度になっています。(というか最初からガラクタっぽい譜面を作ろうとしていた)
1カ所だけBPMを半分にしました。無理押しはないと思います。

お問い合わせはTwitterアカウントまで→@navidai_1015
BPM EASY BASIC ADVANCED EXPERT MASTER
120-240(239.8) - - - - 12

EASY


BASIC


ADVANCED


EXPERT


MASTER

(239.8){4},,,,
{16}6,5,6,5,6,5,6,5,6,5,6,5,6,5,6,5,
{8}7,2,7,2,18,,18,,7,2,7,2,18,,18,,7,2,7,2,18,,18,,37,,25,,46,,5b,,
6,7,6-3[8:1],7,6-2[16:1],,,,3,2,3-6[8:1],2,3-7[16:1],,,,
45,45,36,36,27,27,18,18,2b,,7b,,2b,,7b,,
{4}48,26,57,13,37,15,37,15,84,62,13,57,73,51,{8}37,26,,,
5h[4:3],,,2h[4:1],,,26,,27,,28,,18,18,,1h[8:13],,2,2,2,3,3,3,3,3,,,,{4}3b,,

{8}5h[4:1],,,5,,,6h[4:1],,,6,,6,,,7,,8h[4:1],,,8,,,7h[4:1],,,7,,7,,,6,,
4h[4:1]/5h[4:1],,,45,,,4h[4:1]/3h[4:1],,,43,,43,,,32,,
1h[4:1]/8h[4:1],,,18,,,1h[4:1]/2h[4:1],,,12,,12,,,23,,
5h[4:1]/4h[4:1],,,5p8[8:3]/4q1[8:3],,,54,,,56,,56,,,67,,
8h[4:1]/1h[4:1],,,8q5[8:3]/1p4[8:3],,,81,,,87,,87,,,76,,

(120)
{4}1/2-5[8:1],2/6-3[8:1],6/7q4[8:1],7,
(239.8)
{4}1/2-5[8:1],2/6-3[8:1],6/7q4[8:1],7,8b,8b,8b,8b,
26,48,15,8-4[8:1]/4,2-5[8:1],7-4[8:1],3,1,
48,26,37,1-5[8:1]/5,7-4[8:1],2-5[8:1],6,8b,
26,48,15,8-4[8:1]/4,2-5[8:1],7-4[8:1],3,1,
2-6[8:1]/6,28,1-5[8:1]/5,17,8b,8b,8b,8b,
73,51,84,1-5[8:1]/5,7-4[8:1],2-5[8:1],6,8,
51,73,62,8-4[8:1]/4,2-5[8:1],7-4[8:1],3,6,
{8}17,1>5[8:1]/7^5[8:1],17,17,,,82,8<4[8:1]/2^4[8:1],82,82,,,
36,,27,,18,18,18,18,,7,2,3q1[2:1]/6p8[2:1],,,,,,,,,

{4}8,,,7,6,,5,,1,,,2,3,,4,,45,,,36,27,,18,,1q5[1:1]/8p2[1:1],,,,,,,

{8}7h[4:1],,8,,16,,2,5,2,43,,,83,,7,4,7,56,,,
47,,3,8,3,12,,,52,,6,1,6,87,,
7,2,6,3,63,45,45,,6,3,7,2,72,18,18,,
3,2,3,41,58,58,58,,6,7,6,58,41,41,41,
{4}8-4[4:3]/3,3,3,3,3,3,3,3,1-5[4:3]/3,3,3,3,3,3,3,3,
1-5[4:1]/6,6,6,6,8-4[4:1]/6,6,6,6,
1-5[4:1]/6,6,6-2[4:1],6,3-7[4:1],3b,{8}8b,8b,8b,8b,

{4}8-4[8:1]/2,86,4-8[8:1]/3,42,7-2[8:1],7/1q5[8:1],1/3v8[8:1],3,
7-3[8:1]/3,7,8-4[8:1]/4,1-5[8:1]/8,,1b,1b,1b,
5-1[8:1]/3,57,1-5[8:1]/2,13,6-3[8:1],6/4p8[8:1],4/2v5[8:1],2,
2-6[8:1]/6,2,1-5[8:1]/5,8-4[8:1]/1,,8b,8b,8b,
1-5[8:1]/7,13,5-1[8:1]/6,57,2-7[8:1],2/8p4[8:1],8/6v1[8:1],6,
3-7[8:1]/7,3,4-8[8:1]/8,5-1[8:1]/4,,5b,5b,5b,
4-8[8:1]/6,42,8-4[8:1]/7,86,3-6[8:1],3/5q1[8:1],5/7v4[8:1],7,
6-2[8:1]/2,6,5-1[8:1]/1,4-8[8:1]/5,,4b,4b,4b,

{8}2,2,2,2,6,6,6,6,6-1[8:1],6,3-1[8:1],3,5-1[8:1],5,4-1[8:1],4,
6,6,6,6,2,2,2,2,2-5[8:1],2,7-5[8:1],7,1-5[8:1],1,8-5[8:1],8,
2,2,2-6[8:1],2,8,8,8-4[8:1],8,1-5[8:1],1,7-3[8:1],7,2-6[8:1],2,8-4[8:1],8,
2-6[8:1],2,8-4[8:1],8,1-5[8:1],1,7-3[8:1],7,2b,2,2b,2,2b,2,2b,2,

83,2,62,7,64,3,45,6,
71,2,63,5,16,2,38,7,
48,3,27,3,47,6,45,4,
52,6,73,4,5b/8,7,6b/4,5,

26,47,35,72,47,36,15,26,
37,37,26,26,15,15,48,48,

{16}37,2,1,8,7,8,1,8,7,6,5,4,3,2,1,8,7,,,,
{4}6,5,4,3p6[2:3],,,2,1,,8,,8p5[2:3],,,1,2,,3,4,5,,,27,27,,36,,18,,,,,
{1},,,,E

名前:
コメント:

タグ:

+ タグ編集
  • タグ:

このサイトはreCAPTCHAによって保護されており、Googleの プライバシーポリシー利用規約 が適用されます。

最終更新:2014年06月14日 16:31