XROSS INFECTION(創作譜面:Bluish_eLvis)

曲名 XROSS INFECTION
制作者名 Bluish_eLvis
音源 SOUND VOLTEX II -infinite infection-
http://www.nicovideo.jp/watch/sm21957821(&first=2&seek=0.25)
譜面動画
制作者コメント 我ながらなんとも都合のいいことだと思うのも多分これが最後のつもり。
BPM EASY BASIC ADVANCED EXPERT MASTER
194 - - - 12

EASY


BASIC


ADVANCED


EXPERT

MASTER - code[Inferiority_Complex]

(194){1}1h[4:7],7p2[2:3],4h[1:6],,5<3[4:7],,3>5[4:7],,,
{16}5,4,,,53,,,2,4,5,,,46,,,7,5,4,,,53,,,2,4,5,,,46,,,7,
5,4,,,53,,,2,4,5,,,46,,,7,5,4,,,53,,,2,5,1,,,52,,,3,
4,5,,,46,,,7,5,4,,,53,,,2,4,5,,,46,,,7,5,4,,,53,,,2,
4,5,,,46,,,7,5,4,,,53,,,2,4,5,,,46,,,7,5,8,,,51,,,2,
5,4,,,53,,,2,4,5,,,46,,,7,5,4,,,53,,,2,4,5,,,46,,,7,
5,4,,,53,,,2,4,5,,,46,,,7,5,4,,,53,,,2,5,1,,,52,,,3,
{8}8p3[4:1],4,2,5^8[4:1],3,1,1q6[4:1],5,7,4^1[4:1],6,8,1v4[8:1],8v5[8:1],1,8,
{16}1,2,3,8,7,6,2,3,4,7,6,5,4,5,3,6,
4,7,5,8,6,1,7,2,8,3,1,4,5,8,4,7,
{4}8v2[4:4],,,,6v4[4:1],,5q2[4:1],,7>4[4:2],,4<7[4:1],,2s6[4:2],,1s5[4:2],,
1-5[4:1],,5z1[4:1],5q2[4:2],3-7[8:1],,2-7[4:4],,2<5[4:2],,,,4<1[4:1],,7-2[4:1]/8-5[4:1],,
{2}4h[4:3]/5-2[4:3],,3-8[4:1]/2h[4:1],6-1[4:1]/7h[4:1],
4h[4:3]/5-1[4:3],,5h[4:3]/4-8[4:3],,
{8}1>8[2:1]/8,8,8,8,8,8,8,8,8v5[4:1]/1,1,1,1,1v4[4:1]/8,8,8,8,{16}8<2[16:14]/1b,,,1b,,,1b,,,1b,,,1b,,1b,,
1,8,1,8,1,8,1,8,1,8,1,8,1,8,1,8,
1-6[12:1],,,1/7-4[12:1],,,7/5-3[12:1],,,5/3-7[12:1],,,8b,,6b,,
3,,5,6,7,,3,1,,1,3,,2b/6,,3/7,,
8-3[12:1],,,8/2-5[12:1],,,2/4-6[12:1],,,4/6-2[12:1],,,1b,,3b,,
8,5,7,6,8,,2,1,2,1,2,,3b/4,,4b/3,,
6-3[12:1]/3,,,3-6[12:1]/6,,,6-2[12:1]/3-7[12:1],,,3b/6b,,,4h[8:1]/5h[8:1],,,,
6-1[12:1]/3,,,3-8[12:1]/6,,,6-8[12:1]/3-1[12:1],,,3b/6b,,,2h[8:1]/7h[8:1],,,,
5v8[12:1]/4v1[12:1],,,4b/5b,,,,,6v7[12:1]/3v2[12:1],,,3b/6b,,,,,
2,7,3,6,2h[8:1],,6,,7,3,8,4,1,5,2,6,{8}
#3
  • B2<B6-A6<A7-B7<B3-A2[4:7],{4}3,3,3,3,3,3,3,{8}3,
#2
  • B3<B7-A7<A6-B6<B2-A3[4:7],{4}2,2,2,2,2,2,2,{8}2,
{8}3<2[4:3],3,3,3,3,3,3,3,2<3[4:3],2,2,2,2,2,2,2,
{32}3<2[4:1],2,1,8,7,6,5,4,{4}3,{32}2<3[4:1],3,4,5,6,7,8,1,{4}2,
{8}8v2[8:1],7,6v4[8:1],5,4b,3,2b,1,
{8}8-5[8:1],4-1[8:1],,,1-3[8:1],3-7[8:1],7-5[8:1],,
2^7[8:1],7-5[8:1],2-7[8:1],,36,25,14,83,
{16}2,7,8,1,2,,6,,3,2,1,8,7,,#5-B2-A3[8:1],,{4}#3-B4-B7-A6[8:1],#6-B5-B3-A2[8:1],,8b,
{16}4,5,3,5,2,,1-4[16:1],5,,5-8[16:1],1,,23,,67,,
{8}5-3[16:1],8,1-7[16:1],4,8-6[16:1],3,4-2[16:1],7,
{16}5,4,6,4,7,,8-5[16:1],4,,4-1[16:1],8,,76,,32,,
{8}4-2[16:1],7,8-6[16:1],3,1-7[16:1],4,5-3[16:1],8,
{16}1^3[16:1],6,2,,3^1[16:1],,4,,8^6[16:1],,7,,6^8[16:1],,5,,
1^3[16:1],,2,,3^1[16:1],,4,3,,,2,,3,,4,,
5-3[8:1],4,5,,3-7[8:1],6,3,,7-1[8:1],2,7,,1,8,1,8,
1^6[16:3],,,6^4[8:1],,,5^2[8:1],,2<5[4:1],,,,,,,,
{16}5,1,6,2,7-4[8:1],,5,,1,5,8,4,7-2[8:1],,3,,
1,5,2,6,3-8[8:1],,1,,5,1,4,8,3,,7,,
5<1[8:1],,5,6,1>6[8:1],,1,,6<3[8:1],,6,7,8,,8,,
6-1[12:1]/3,,,3-8[12:1]/6,,,6-8[12:1]/3-1[12:1],,,3b/6b,,,2h[8:1]/7h[8:1],,,,
{8}18,5,4,6,{4}3,2,7b,8b,1b,{16},,7,8,{1}1h[1:1],
{8},2,1,8,7,8,1,2,
{16}3,4,3,5,{8}3h[4:1],{16}4,1h[4:1],{8},8,7,6,5,4,{16}1,2,{8}3h[8:3],,,,{16}7,8,
{16}1b,3,2,8b,6,7,1b,3,2,8b,6,7,1b,3,2,1b,3,2,8b,6,7,8b,6,7,1b,3,2,8b,6,7,1b,8b,
{8}1,5,2,6,{16}7,3,8,2,{8}1,3,{16}5,6,7,6,5,6,7,6,{8}5,3,1,7,
{8}86,1,26,1,{16}35,2,{8}3,45,5,64,7,64,5,34,,1b/2b,,
{16}8,4,7,4,6,,7,,8,,8,1,,1,8,,1,5,2,5,3,,{8}2,1,45,8b/1b,,
{8}53,57,64,68,75,71,86,82,45,84,36,37,24,21,13,12,
{16}7b,8,1,2b,1,8,7b,8,1,2b,1,8,7b,8,2b,1,
5,4,7,2,6,3,8,1,8,1,5,4,6,3,7,2,1b/8b,,,{1}1b/8b,,,E
名前:
コメント:

タグ:

+ タグ編集
  • タグ:

このサイトはreCAPTCHAによって保護されており、Googleの プライバシーポリシー利用規約 が適用されます。

最終更新:2014年06月22日 13:41