ENDING それぞれの未来へ(創作譜面:はぴぷりなごや)

曲名 エンディング それぞれの未来へ
制作者名 はぴぷりなごや
音源
譜面動画
制作者コメント MASTERはスライド文字が多数です
ポケットモンスターで好きなBGMです。ミュウツー最強ですね。
BPM EASY BASIC ADVANCED EXPERT MASTER
74-164 - - - - 11

EASY


BASIC


ADVANCED


EXPERT


MASTER


&inote_5=
(162){12}
1,1,2,1,1,2,

(163)
3,,,4,,,5,7,8,4,,,
1,,3,4,5,7,4,5,6,8,6,4,


3,,,4,,,5,7,8,4,,,
1,,3,4,5,7,4,5,6,8,6,4,

3,,,4,,,5,7,8,4,,,
1,,3,4,5,7,4,5,6,8,6,4,


3,,,4,,,5,7,8,4,,,
1,,3,4,5,7,4,5,6,8,6,4,

(160)
4,,4,4,,4,1,2,4,8,,,
7,,7,8,,8,2,4,5,2,2,3,

4,,4,4,,4,1,2,4,8,,,
7,,7,8,,8,2,4,5,2,2,3,

4,,4,4,,4,1,2,4,8,,,
7,,7,8,,8,2,4,5,2,2,3,

(158)
4,,4,4,,4,1,2,4,8,,,
7,,7,8,,8,2,4,5,2,2,3,

(159)
31,,,2,4,5,78,,,64,,,
48,,,3,4,5,85,,,2/6b,,,

3/1h[12:1],,,5,8,5,7/1b,,,1b/2,,,
5s1[12:4],,,,,,1s5[12:4],,,,,,

31,,,2,4,5,78,,,64,,,
48,,,3,4,5,85,,,4/6b,,,

3/1h[12:1],,,5,8,5,7/1b,,,1b/2,,,
4q1[12:4],,,,,,8q5[12:4],,,,,,

3,,3,4,,4,5,5,5,6h[12:1],,,
1,,3,4,,3,6,4,8,7h[12:1],,,

3,,3,4,,4,5,5,5,6h[12:1],,,
1,,3,4,,3,6,4,8,7b,2b,4b,

{24}
1,,,,2,,
1,,3,,4,,
1,2,3,,4,,
57,,,,68,,

{24}
1,,,,2,,
1,,3,,4,,
1,2,3,,4,,
57,,,,68,,


{24}
1,,,,2,,
1,,3,,4,,
1,2,3,,4,,
57,,,,68,,

{12}
8p5[12:4],,,,,,
5z1[12:1],,,,,,


{24}
1,,,,2,,
1,,3,,4,,
1,2,3,,4,,
57,,,,68,,

{24}
1,,,,2,,
1,,3,,4,,
1,2,3,,4,,
57,,,,68,,


{24}
1,,,,2,,
1,,3,,4,,
1,2,3,,4,,
57,,,,68,,

{12}
6p5[12:4],,,,,,
5q4[12:1],,,,,,

(152)
6p5[12:4],,,,,,
3<7[12:4]/7>3[12:4],,,,,,

8-5[12:4]/2p4[12:4],,,,,,
3<2[12:1],,,7-2[12:1],,,

8-6[12:1]/1-3[12:1],,,8v1[12:1],,,
3<7[12:4]/7>3[12:4],,,,,,
5q4[12:7],,,,,,
,,,,,,

8-5[12:1],,,5s1[12:4],,,,,,
1^8[12:1],,,

7-5[12:2],,,2-4[12:1],,,
8-4[12:2],,,1-5[12:1],,,

8-5[12:4],,,,,,8>5[12:4],,,,,,

(152.7)
2^7[12:2],,,,,,7-3[12:3],,,3^6[12:1],,,

(148)
6z2[12:4],,,,,,
8-5[12:3],,,8h[12:1],,,
5q4[12:4],,,,,,
7-2[12:1],,,8-5[12:1],,,

3<2[12:1],,,7-2[12:1],,,
5q4[12:4],,,,,,
1-4[12:1],,,5p4[12:1],,,
3<7[12:4]/7>3[12:4],,,,,,

8-5[12:1],,,7-2[12:1],,,
2-4[12:4],,,,,,

7h[12:4]/2-4[12:10],,,,,,
,,,,,,

(148.11)
8-5[12:4]/6-2[12:7],,,,,,
,,,,,,

(152)
6-3[12:7],,,
,,,
,,,
,,,

(154)
1,,2,3,,4,5,,6,7,7,8,
8b/1b,,,2b,,,3b,,,4b,,,

(74)
{4}
1v3[4:1],3v5[4:1],5v7[4:1],7v8[4:1],
{8}
8<3[8:3]/3q6[8:3],,,,,2,3,4,

(74)
{4}
1v3[4:1],3v5[4:1],5v7[4:1],7v8[4:1],
{8}
8<2[8:3]/5p8[8:3],,,,,2,3,4,

(74)
{4}
1v3[4:1],3v5[4:1],5v7[4:1],7v8[4:1],
{8}
8<2[8:3]/5p8[8:3],,,,6<2[8:2]/5s1[8:2],,,,

(148)
{8}
8<2[8:3]/6p8[8:3],,,,3<7[8:2]/5s1[8:2],,,,
{8}
4>5[8:3]/5q4[8:3],,,,6<4[8:2]/5p4[8:2],,,,
{8}
5<2[8:3]/7p8[8:3],,,,6>7[8:2]/5p1[8:2],,,,
{8}
4>6[8:3]/5s1[8:3],,,,
(160)
7<2[8:2]/8q1[8:2],,,,

(159)
{12}
4,,5,7,,8,2,,4,2,6,4,
4,,5,7,,8,2,,4,2,6,4,
4,,5,7,,8,2,,4,2,6,4,
4,,5,7,,8,2,1,1,3b,,,

(160)
4,,5,7,,8,2,,4,2,6,4,
4,,5,7,,8,2,,4,2,6,4,
4,,5,7,,8,2,,4,2,6,4,
4,,5,7,,8,2,1,1,3b,,,

6p5[12:4],,,,,,
3<7[12:4]/7>3[12:4],,,,,,

8-5[12:4]/2p4[12:4],,,,,,
3<2[12:1],,,7-2[12:1],,,

8-6[12:1]/1-3[12:1],,,8v1[12:1],,,
3<7[12:4]/7>3[12:4],,,,,,
5q4[12:7],,,,,,
,,,3b/7b,3b/1b,3b/5b,

(159)
6p5[12:4],,,,,,
3<7[12:4]/7>3[12:4],,,,,,

8-5[12:4]/2p4[12:4],,,,,,
3<2[12:1],,,7-2[12:1],,,

8-6[12:1]/1-3[12:1],,,8v1[12:1],,,
3<7[12:4]/7>3[12:4],,,,,,
5q4[12:4],,,,,,
2b,2b,2b,3b/7b,3b/1b,3b/5b,


(164)
,,,2,2,2,3,3,4,2,6,5,
7,8,,7,7,78,

1h[24:50]/8h[24:50],,,,,,

{24}
,,,,,,,,,,,,,,,,,,,,,,,,
,,,,,,,,,,,,,,,,,,,,,,,,
,,,,,,,,,,,,
,,,,,,,,,,,,
,,,,,,,,,,,,
,,,,,,,,,,,,
,,,,,,,,,,,,


名前:
コメント:

タグ:

+ タグ編集
  • タグ:

このサイトはreCAPTCHAによって保護されており、Googleの プライバシーポリシー利用規約 が適用されます。

最終更新:2014年08月07日 17:41