ハピプリOP(創作譜面:はぴぷりなごや)

曲名 ハピネスチャージプリキュア!WOW!
制作者名 はぴぷりなごや
音源
譜面動画
制作者コメント 名古屋テレビのハピプリのOPです。
MASTERはブレイクラブリービームを譜面にして作ってみました。
BPM EASY BASIC ADVANCED EXPERT MASTER
175 - - - 9 12

EASY


BASIC


ADVANCED


EXPERT

&inote_4=
(175){16}
,,,,,,,,,,,,,,,,
,,,,,,,,,,,,8b,,,,

1,,,,,,,,
,,,,,,,,

,,,,,,,,
1b,,,3b,,,5b,,


1b,,,,
,,,,
2b,,,,
,,,,

1b,,2b,,3b,,4b,,
,,7b,,,,,,

1,,2,,,,2,,4,,,,
,,,,
1,,2,,2,,3,,4,,5,,6,,,,

{4}
1-3[4:1],3-1[4:1],1-5[4:1],5-2[4:1],
{8}
2,3,3,,48,,64,,

1,,2,,2,2,,,
1,2,2,,4,,6,,

1,,2,,7,8,,4,
1,2,3,,6h[8:1],,,,

1,,2,,2,2,,,
1,2,2,,4,,6,,

1,,2,,7,8,,4,
1,2,3,,6h[8:1],,,,

7h[8:13]/2h[8:13],,,,,,,,
,,,,,,,,
{8}
1,,2,,2,4,,6,
1,2,3,,7,8,,6,
1,,2,,3,4,,4,
1,2,3,4,,2,2,3,
{4}
1^3[4:1],3^5[4:1],5^7[4:1],7^1[4:1],
1^3[4:1],3^5[4:1],5^7[4:1],7^1[4:1],
{4}
1,2b,3,4b,
,71,53,,

{8}
1,,2,,2,4,,6,
1,2,3,,7,8,,6,
1,,2,,3,4,,4,
1,2,3,4,,2,2,3,
{4}
1^3[4:1],3^5[4:1],5^7[4:1],7^1[4:1],
1^3[4:1],3^5[4:1],5^7[4:1],7^1[4:1],
{4}
8h[4:2]/1b,,,,
{8}
31,,31,,34,34,,78,
1,2,3,,1,2,3,4,

1,,,4,6,,,,
8,,,2,3,,,,
7,,,4,3,,,,
1,,6,,4,,8,,

1,2,3,,3,2,1,,
4,5,6,7,8,,1,,
1b,,1,,2,,3,,
1,,2,,4,8,,7,
1,1,3,3,4,5,4,,

1,2,3,4,
8b,,6b,,

4,3,2,1,
8b,,6b,,

1,2,3,4,5,6,7,8,
1b,2b,3b,4h[8:4],,,,,

{32}
5h[32:81],4h[32:80],,,,,,,
,,,,,,,,
,,,,,,,,
,,,,,,,,

,,,,,,,,
,,,,,,,,
,,,,,,,,
,,,,,,,,

,,,,,,,,
,,,,,,,,
,,,,,,,,
8b/4b,,,,,,,,

{8}
1,,3,,1,2,4,,
1,2,3,4,8,,5,,
1,2,3,4,4,8,,2,
18,34,64,,78,,62,,

{8}
1,,3,,1,2,4,,
1,2,3,4,8,,5,,
1,2,3,4,4,8,,2,
1,3,6,,78,,62,,

1,2,3,4,5,6,7,8,
2,3,4,5,6,7,8,1,
1b,2b,3b,4b,,7b/1b,8b/5b,6b/1b,
21,34,35,5s1[8:3],,,,,

{1}
,
,
,
,
,
,
E

MASTER

&inote_5=
(175){16}
1,2,3,4,5,6,7,8,1,2,3,4,5,6,7,8,
1,2,3,4,5,6,7,8,1,2,3,4,8b,,,,

1,,,,2,,,,1,,,,3,,3,,
1,,6,,4,,5,,78,,,35,,,24,,

1,,,,2,,,,14,,,,36,,38,,
1b,,6b,,4b,,5b,,,,5p4[16:1],,,,,,

4,,,,5,,,,7,,8,,4,,8,,

,,3,,4,,
5,5,5,,
6,,7,,,,

{8}
1,6,4,5,8,1,,3,

,7b,8b,,
87,,46,,

{16}
1,2,3,,
7,4,8,,
7,,5,,4,,6,6,

1,2,2,,3,3,8,,
1,2,3,4,5,,,,

{16}
1,2,3,,
7,4,8,,
7,,5,,4,,6,6,

1,2,2,,3,3,8,,
1,2,3,4,5,,,,

{16}
1,2,3,,
7,4,8,,
7,,5,,4,,6,6,

1,2,2,,3,3,8,,
1,2,3,4,5,,,,

{16}
1,2,3,,
7,4,8,,
7,,5,,4,,6,6,

1,2,2,,3,3,8,,
1,2,3,4,5,,,,

{4}
5<4[4:5]/6p3[4:5],,,,
,,,,

{8}
7,,8,,7,2,6,3,
7,,8,,7,2,6,3,
7,,8,,7,2,6,3,
7,8,8,6,,2,6,,

{16}
1,,2,2,3,,4,4,5,,6,6,7,,8,8,

1,,2,,3,,4,,
5,6,7,,8,6,7,,

1,1,1,1,2b,,,,
3,3,3,3,4b,,,,

1,2,,2,1,,3,3,,
6,4,,
2,,,,

{8}
7,8,8,,7,2,6,3,
7,2,8,,7,2,6,3,
7,4,8,,7,2,6,3,
7,8,8,6,,2,6,8,

{16}
1b,1,2,2,3b,3,4,4,5b,5,6,6,7b,7,8,8,

1,,2,,3,,4,,
5,6,7,,8,6,7,,

{4}
1q6[4:3]/2p5[4:3],,,,

{16}
37,,,,
64,,,,
78,,6h[16:2]/4h[16:2],,
,,7p6[16:11]/2q3[16:11],,

,,,,
,,,,
,,,,
,,,,

{8}
1,5,,7,1,4,6,,
8,5,,2,7,8,3,6,
7p6[8:12]/2q3[8:12],,,,,,,,
,,,,,,,,

{8}
34,65,45,75,85,56,24,8b,
34,65,45,7b/5,85,56,24,8b,
{4}
7-2[4:3]/3-6[4:3],,,,
1p4[4:3]/8q5[4:3],,,,
8p3[4:3]/1q6[4:3],,,,

{16}
23,34,45,,
75,85,85,,
21,24,46,64,
31,34,27,,

23,34,45,,
75,85,85,,
21,24,46,64,
31,34,27,,

2b/3,34,4b/5,8,
7b/5,85,8b/5,6,
2b/3,34,4b/5,8,
7b/5,85,8b/5,6,

2b/3,34,4b/5,84,
7b/5,82,8b/6h[16:8],,
,,,,
,,,,

{16}
4b/5b,4b/5b,4b/5b,4b/5b,
4b/5b,4b/5b,4b/5b,4b/5b,
4b/5b,4b/5b,4b/5b,4b/5b,
4b/5b,4b/5b,4b/5b,4b/5b,

4b/5b,4b/5b,4b/5b,4b/5b,
4b/5b,4b/5b,4b/5b,4b/5b,
4b/5b,4b/5b,4b/5b,4b/5b,
4b/5b,4b/5b,4b/5b,4b/5b,

{16}
4b/5b,4b/5b,4b/5b,4b/5b,
4b/5b,4h[16:5],5h[16:4],,
,,,,
7b/3b,,,,

1,,2,3,
1,,2,3,
1,,2,3,
1,,2,3,

1,2,3,4,
1,2,3,4,
1,2,3,3,
3,,,,

5,,6,7,
5,,6,8,
5,,8,3,
5,,2,4,

8,2,3,4,
1,6,6,4,
1,4,6,3,
3,,,,

1,,2,3,
1,,2,3,
1,,2,3,
1,,2,3,

1,2,3,4,
1,2,3,4,
1,2,3,3,
3,,,,

5,,6,7,
5,,6,8,
5,,8,3,
5,,2,4,

8,2,3,4,
1,6,6,4,
1,4,6,3,
3,,,,

{8}
7p6[8:12]/2q3[8:12],,,,,,,,
,,,,,,,,

{16}
8,,3,4,
1,,6,4,
1,4,6,,
3,,,,

{8}
47,84,65,5p6[8:5]/2q3[8:5],,,,,,,,
,,,,,,,,

{1}
,
,
,
,
,
E

タグ:

+ タグ編集
  • タグ:

このサイトはreCAPTCHAによって保護されており、Googleの プライバシーポリシー利用規約 が適用されます。

最終更新:2014年08月07日 18:04