MOON PRIDE(創作譜面:はぴぷり☆名古屋)

曲名 MOON PRIDE
制作者名 はぴぷり☆名古屋
音源 http://www.youtube.com/watch%3fv=zZmGYH5Nt8Q
譜面動画
制作者コメント セラクリのOP曲。
BPMが多少ずれてるが、途中のスライドは月をイメージしたもの
BPM EASY BASIC ADVANCED EXPERT MASTER
172.5 - - - - 11

EASY


BASIC


ADVANCED


EXPERT


MASTER

&inote_5=
(172.5){8}
1,,1,2,,2,,1,
,1,1,,3b,,3b,,
1,,1,2,,2,,1,
,1,1,,3b,,3b,,
1,,1,2,,2,,1,
,1,1,,3b,3b,3b,,

3h[8:5],,,,,,,,
4h[8:5],,,,,,,,
1,2,3,4,5,6,7,8h[8:6],
,,,,,,,,


{16}
1b,,2,2,3b,,4,4,5b,,6,6,7b,,8b,,
1b,,2,2,3b,,4,4,5b,,6b,,7b,,8b,,
1b,,2,2,3b,,4,4,5b,,6,6,7b,,8b,,
8z4[16:5],,,,,,,,13,,57,,64,,82,,

1b,,2,2,3b,,4,4,5b,,6,6,7b,,8b,,
1b,,2,2,3b,,4,4,5b,,6b,,7b,,8b,,
1b,,2,2,3b,,4,4,5b,,6,6,7b,,8b,,
15,,67,,84,,23,,31,,24,,57,,86,,

1,1,1,,2,,,,3,4,5,,6,,,,
7h[16:1],,,,8h[16:1],,,,13,,57,,46,,82,,

1,1,1,,2,,,,3,4,5,,6,,,,
7h[16:1],,,,8h[16:1],,,,13,,57,,46,,82,,

1,1,1,,2,,,,3,4,5,,6,,,,
7h[16:1],,,,8h[16:1],,,,13,,57,,46,,82,,

1,1,1,,2,,,,3,4,5,,6,,,,
7h[16:1],,,,8h[16:1],,,,13,,57,,46,,82,,

1,,,,2,,,,1,2,3,,5,,,,
1,,4,,2,,,,1,2,3,,5,,,,

1,,,,2,,,,1,2,3,,5,,,,
1,,4,,2,,,,1,2,3,,5,,,,

1,,2,,2,,4,,,,8,,8,,,,
1,,2,,2,,4,,,,8,,8,,,,

{8}
3<1[8:7]/1p3[8:7],,,,,,,,
,,,,3b/5b,,1b/7b,,

{16}
1,,2,,3,,4,,5,6,7,,8,,8,,
1,,2,,3,,4,,6,6,7,,8,,8,,

1,,2,,3,,4,,5,6,7,,8,,8,,
1,,3,,3,,4,,5,6,7,,8,,8,,

1,,2,,3,,4,,6,6,7,,8,,8,,

1,,2,,3,,4,,5,6,7,,8,,8,,
1,,3,,3,,4,,5,6,7,,8,,8,,
{4}
1b/5b,4b/8b,2b/6b,3b/7b,
{8}
4<3[8:5]/2q5[8:5],,,,,,,,

1,,1,2,,2,,1,
,1,1,,3b,,3b,,
1,,1,2,2,,1,1,
,1,2,,3,,4b,4b,
1,,1,2,,1,,2,
,1,1,,3b,,3b/5b,,
1,1,1,2,2,,1,1,
,1,1,1,37,4b,3b,6b,

{4}
1-4[4:1],7-3[4:1],2-5[4:1],2-8[4:1],
{8}
,1,1,,3b,,3b,,
{4}
1q4[4:1],7p3[4:1],2z6[4:1],2^8[4:1],
{8}
,1,2,,3,,4b,4b,
{4}
6s2[4:1],7z3[4:1],2z6[4:1],4s8[4:1],
{8}
,1,1,,3b,,3b/5b,,
{4}
1p4[4:1],7p3[4:1],2p5[4:1],2p8[4:1],
{8}
,1,1,1,37,4b,3b,6b,

{16}
1,1,1,1,2,2,2,2,3,3,4,4,5,5,6,6,
1,2,1,2,1,3,1,3,4,5,7,8,4,5,1,6,


{8}
3<1[8:13]/1p3[8:13],,,,,,,,
,,,,,,,,

{16}
1b,,2,2,3b,,4,4,5b,,6,6,7b,,8b,,
1b,,2,2,3b,,4,4,5b,,6b,,7b,,8b,,
1b,,2,2,3b,,4,4,5b,,6,6,7b,,8b,,
13,,57,,64,,82,,25,,67,,42,,83,,
8b/1b,,,,,,,,,,,,,,,,
,,,,,,,,,,,,,,,,
,,,,,,,,,,,,,,,,
E

タグ:

+ タグ編集
  • タグ:

このサイトはreCAPTCHAによって保護されており、Googleの プライバシーポリシー利用規約 が適用されます。

最終更新:2014年08月07日 18:19